<?xml version="1.0" standalone="no"?>
<!DOCTYPE svg PUBLIC "-//W3C//DTD SVG 1.1//EN" "http://www.w3.org/Graphics/SVG/1.1/DTD/svg11.dtd" >
<svg xmlns="http://www.w3.org/2000/svg">
<metadata></metadata>
<defs>
<font id="novecento_sans_wide_bookbold" horiz-adv-x="668" >
<font-face units-per-em="1000" ascent="821" descent="-179" />
<missing-glyph horiz-adv-x="250" />
<glyph horiz-adv-x="0" />
<glyph horiz-adv-x="333" />
<glyph unicode=" "  horiz-adv-x="250" />
<glyph unicode="&#x09;" horiz-adv-x="250" />
<glyph unicode="&#xa0;" horiz-adv-x="250" />
<glyph unicode="!" horiz-adv-x="348" d="M258 700v-500h-168v500h168zM174 -9q-41 0 -63.5 22t-22.5 57q0 34 22.5 56t63.5 22t63 -22t22 -56q0 -35 -22 -57t-63 -22z" />
<glyph unicode="&#x22;" horiz-adv-x="481" d="M207 700l-8 -251h-140l-8 251h156zM429 700l-9 -251h-139l-9 251h157z" />
<glyph unicode="#" horiz-adv-x="667" d="M498 217h67l-41 -147h-66l-19 -70h-127l19 70h-110l-19 -70h-126l19 70h-67l41 147h66l34 126h-68l42 147h65l19 70h126l-19 -70h110l19 70h127l-19 -70h68l-41 -147h-66zM289 352l-39 -143h127l39 143h-127z" />
<glyph unicode="$" horiz-adv-x="503" d="M476 165q0 -73 -44 -116.5t-120 -55.5v-83h-112v83q-147 21 -173 148l144 38q5 -28 26 -49.5t61 -21.5q62 0 62 48q0 13 -5.5 23t-13 16t-23 11.5t-27 8.5t-33 8t-34.5 9q-70 20 -109.5 56.5t-39.5 110.5q0 72 41 114.5t115 53.5v83h113v-83q133 -21 165 -136l-137 -37 q-11 59 -85 59q-64 0 -64 -46q0 -28 22.5 -40.5t88.5 -28.5q32 -8 50.5 -14t47 -20t44.5 -30.5t28 -44.5t12 -64z" />
<glyph unicode="%" horiz-adv-x="748" d="M175 226q-72 0 -107 45.5t-35 126.5t35 127t107 46t107 -46t35 -127t-35 -126.5t-107 -45.5zM508 560l-188 -560h-81l187 560h82zM175 318q23 0 33 16.5t10 63.5t-10 63.5t-33 16.5q-22 0 -32.5 -17t-10.5 -63t10.5 -63t32.5 -17zM574 -6q-72 0 -107.5 46t-35.5 127 q0 80 35.5 126t107.5 46t106.5 -46t34.5 -126q0 -81 -34.5 -127t-106.5 -46zM574 87q22 0 33 16.5t11 63.5q0 46 -11 62.5t-33 16.5q-23 0 -34 -16.5t-11 -62.5q0 -47 11 -63.5t34 -16.5z" />
<glyph unicode="&#x26;" horiz-adv-x="620" d="M518 229v-49q0 -94 -63 -143t-182 -49q-117 0 -175.5 45.5t-58.5 121.5q0 49 24 83.5t63 46.5v2q-35 9 -60 41.5t-25 87.5q0 155 217 155q99 0 159.5 -34.5t93.5 -107.5l-145 -39q-24 52 -93 52t-69 -44q0 -56 79 -56h316v-113h-81zM359 229h-85q-74 0 -74 -56 q0 -58 76 -58q83 0 83 74v40z" />
<glyph unicode="'" horiz-adv-x="259" d="M207 700l-8 -251h-140l-8 251h156z" />
<glyph unicode="(" horiz-adv-x="413" d="M348 794l41 -154q-179 -54 -179 -354t179 -355l-41 -154q-40 13 -72.5 29t-77.5 54.5t-75 89.5t-52 138.5t-22 197.5t22 197.5t52.5 138.5t75.5 89.5t77 54t72 28.5z" />
<glyph unicode=")" horiz-adv-x="413" d="M65 -222l-41 154q179 55 179 354q0 300 -179 355l41 154q40 -13 72.5 -28.5t77.5 -54t75 -90t52 -139t22 -197.5q0 -109 -22 -196.5t-52.5 -138.5t-75.5 -89.5t-77 -54.5t-72 -29z" />
<glyph unicode="*" horiz-adv-x="463" d="M313 505l60 -79l-85 -63l-56 83l-57 -83l-86 62l61 80l-94 27l32 100l91 -30l-1 98h105v-98l93 30l31 -100z" />
<glyph unicode="+" d="M537 212h-130v-143h-144l-1 143h-131v137h131v143h144v-143h131v-137z" />
<glyph unicode="," horiz-adv-x="283" d="M112 15q-26 -1 -41 15.5t-15 44.5q0 31 22.5 51.5t57.5 20.5q42 0 69 -27t27 -74q0 -48 -32.5 -88.5t-87.5 -56.5l-61 68q45 10 61 46z" />
<glyph unicode="-" horiz-adv-x="571" d="M489 212h-407v137h407v-137z" />
<glyph unicode="." horiz-adv-x="283" d="M142 -9q-41 0 -63.5 22t-22.5 57q0 34 22.5 56t63.5 22t63 -22t22 -56q0 -35 -22 -57t-63 -22z" />
<glyph unicode="/" horiz-adv-x="510" d="M497 700l-344 -700h-140l349 700h135z" />
<glyph unicode="0" horiz-adv-x="540" d="M270 571q110 0 173.5 -73.5t63.5 -217.5t-63.5 -217.5t-173.5 -73.5t-173.5 73.5t-63.5 217.5t63.5 217.5t173.5 73.5zM270 426q-42 0 -60 -32.5t-18 -113.5t18 -113.5t60 -32.5q41 0 60 33t19 113q0 81 -18.5 113.5t-60.5 32.5z" />
<glyph unicode="1" horiz-adv-x="397" d="M174 0v259q0 20 1 50t2 49l1 19h-3l-5 -7q-6 -7 -14.5 -17t-15.5 -15l-24 -22l-92 114l160 130h148v-560h-158z" />
<glyph unicode="2" horiz-adv-x="512" d="M45 0v171l189 128q44 31 62 49.5t18 40.5t-16.5 35.5t-47.5 13.5q-55 0 -66 -50l-149 40q36 143 224 143q105 0 160.5 -45t55.5 -128q0 -38 -11 -68t-35 -53.5t-45 -38t-57 -34.5l-104 -62l1 -5q56 4 85 4h168v-141h-432z" />
<glyph unicode="3" horiz-adv-x="519" d="M371 293v-4q49 -3 82 -38t33 -94q0 -76 -58.5 -122t-161.5 -46q-92 0 -152.5 39.5t-80.5 118.5l140 38q17 -62 86 -62q35 0 54 15.5t19 41.5q0 52 -69 52h-65v110h58q32 0 50.5 14.5t18.5 37.5t-17.5 36.5t-48.5 13.5q-33 0 -51.5 -15t-21.5 -38l-142 37q36 143 228 143 q101 0 154.5 -38t53.5 -109q0 -62 -34.5 -94.5t-74.5 -36.5z" />
<glyph unicode="4" horiz-adv-x="562" d="M447 0h-158v119h-257v138l174 303h241v-309h80v-132h-80v-119zM289 251v53v28v28t0.5 25.5t0.5 23v18v11.5v5h-7l-105 -188l2 -4h68h41z" />
<glyph unicode="5" horiz-adv-x="512" d="M199 351l5 -2q30 17 80 17q92 0 142.5 -50t50.5 -131q0 -88 -59.5 -142t-162.5 -54q-88 0 -146 39t-74 99l136 34q18 -42 79 -42q36 0 57 18t21 48t-21 48t-58 18q-46 0 -69 -28l-128 34l56 303h334v-147h-231l-5 -31z" />
<glyph unicode="6" horiz-adv-x="517" d="M234 339l3 -3q24 21 73 21q75 0 127 -48t52 -126q0 -88 -63 -141t-168 -53q-103 0 -167 53t-64 152q0 58 25 112t77 120l108 134h166zM261 123q37 0 58 17.5t21 48.5t-20.5 48t-58.5 17q-37 0 -58 -17t-21 -49q0 -31 21 -48t58 -17z" />
<glyph unicode="7" horiz-adv-x="513" d="M492 447l-252 -447h-162l155 273q18 31 38.5 65t31.5 52l11 19l-3 4h-77h-204v147h462v-113z" />
<glyph unicode="8" horiz-adv-x="522" d="M33 156q0 58 32.5 92.5t78.5 46.5v3q-29 8 -58 39t-29 84q0 65 55.5 107.5t147.5 42.5t147.5 -42.5t55.5 -107.5q0 -54 -28.5 -85t-57.5 -38v-3q45 -12 78 -46t33 -93q0 -72 -57.5 -120t-167.5 -48q-109 0 -169.5 47t-60.5 121zM194 412q0 -52 66 -52q67 0 67 52 q0 26 -18.5 39t-48.5 13t-48 -13.5t-18 -38.5zM184 166q0 -29 21.5 -45t54.5 -16q35 0 56 16t21 45t-21.5 44.5t-55.5 15.5q-35 0 -55.5 -15.5t-20.5 -44.5z" />
<glyph unicode="9" horiz-adv-x="523" d="M288 213l-3 4q-21 -19 -71 -19q-81 0 -131.5 50.5t-50.5 126.5q0 86 65.5 141t165.5 55q99 0 165.5 -54.5t66.5 -152.5q0 -41 -10 -78t-30 -68.5t-33.5 -48.5t-36.5 -42l-114 -127h-175zM260 437q-36 0 -57.5 -17t-21.5 -50q0 -67 79 -67q80 0 80 68q0 32 -21.5 49 t-58.5 17z" />
<glyph unicode=":" horiz-adv-x="283" d="M142 320q-41 0 -63.5 22t-22.5 57q0 34 22.5 56t63.5 22t63 -22t22 -56q0 -35 -22 -57t-63 -22zM142 -9q-41 0 -63.5 22t-22.5 57q0 34 22.5 56t63.5 22t63 -22t22 -56q0 -35 -22 -57t-63 -22z" />
<glyph unicode=";" horiz-adv-x="283" d="M142 320q-41 0 -63.5 22t-22.5 57q0 34 22.5 56t63.5 22t63 -22t22 -56q0 -35 -22 -57t-63 -22zM112 16q-26 -1 -41 15.5t-15 44.5q0 30 22.5 51t57.5 21q42 0 69 -27.5t27 -73.5q0 -48 -32.5 -88.5t-87.5 -56.5l-61 68q45 10 61 46z" />
<glyph unicode="&#x3c;" d="M548 32l-451 194v107l451 195v-142l-263 -105v-3l263 -104v-142z" />
<glyph unicode="=" d="M537 331h-406v137h406v-137zM537 99h-406v137h406v-137z" />
<glyph unicode="&#x3e;" d="M383 278v3l-263 105v142l451 -195v-107l-451 -194v142z" />
<glyph unicode="?" horiz-adv-x="576" d="M199 200v170q104 32 142 58t38 57q0 30 -20.5 50t-65.5 20q-44 0 -68.5 -17t-38.5 -52l-158 42q23 85 94 135.5t176 50.5q115 0 182.5 -58.5t67.5 -148.5q0 -147 -180 -213v-94h-169zM283 -9q-41 0 -63.5 22t-22.5 57q0 34 22.5 56t63.5 22t63 -22t22 -56q0 -35 -22 -57 t-63 -22z" />
<glyph unicode="@" horiz-adv-x="808" d="M393 331q-30 0 -47.5 -21t-17.5 -58q0 -38 17.5 -59t47.5 -21t47 21t18 57v194h138v-199q0 -53 8 -76t34 -23q52 0 52 119q0 129 -76 208t-205 79q-134 0 -213 -84.5t-79 -212.5q0 -146 78 -217t208 -71q89 0 153 39l84 -42q-96 -78 -241 -78q-171 0 -271 94.5 t-100 276.5q0 167 103 271.5t275 104.5q175 0 274.5 -103t99.5 -267q0 -91 -44 -151t-119 -60q-94 0 -125 75h-3q-11 -32 -45.5 -55.5t-88.5 -23.5q-84 0 -130 55t-46 146q0 96 43.5 151t131.5 55q37 0 64 -15.5t37 -32.5h3v-153q0 36 -17 56.5t-48 20.5z" />
<glyph unicode="A" horiz-adv-x="758" d="M523 116h-291l-42 -116h-177l270 700h191l271 -700h-180zM468 269l-50 139q-9 22 -19 50t-15 40l-5 13h-3q0 -1 -39 -102l-50 -140h181z" />
<glyph unicode="B" horiz-adv-x="632" d="M481 377v-4q55 -16 91 -59.5t36 -109.5q0 -87 -63.5 -145.5t-187.5 -58.5h-301v700h302q92 0 152.5 -53.5t60.5 -128.5q0 -53 -28 -91t-62 -50zM224 423h102q34 0 55 19t21 50q0 30 -21 49.5t-56 19.5h-101v-138zM224 139h118q42 0 65.5 22t23.5 58q0 37 -24 58.5 t-65 21.5h-118v-160z" />
<glyph unicode="C" horiz-adv-x="749" d="M559 251l165 -44q-39 -102 -129 -161.5t-204 -59.5q-158 0 -260.5 101.5t-102.5 264.5q0 159 102.5 260.5t260.5 101.5q116 0 202.5 -56.5t123.5 -145.5l-166 -45q-57 89 -168 89q-85 0 -135.5 -57t-50.5 -149t51.5 -148.5t133.5 -56.5q65 0 109.5 29.5t67.5 76.5z" />
<glyph unicode="D" horiz-adv-x="751" d="M56 700h298q159 0 264 -98.5t105 -254.5t-105 -251.5t-263 -95.5h-299v700zM224 156h121q87 0 148 47.5t61 143.5t-61.5 146.5t-147.5 50.5h-121v-388z" />
<glyph unicode="E" horiz-adv-x="613" d="M56 0v700h510v-156h-342v-120h252v-140h-252v-128h347v-156h-515z" />
<glyph unicode="F" horiz-adv-x="593" d="M557 544h-333v-134h259v-156h-259v-254h-168v700h501v-156z" />
<glyph unicode="G" horiz-adv-x="780" d="M736 0h-150v24t0.5 14t0.5 7v4h-2q-32 -27 -85.5 -45t-111.5 -18q-150 0 -255 102.5t-105 262.5t102.5 261.5t260.5 101.5q116 0 203.5 -56.5t122.5 -145.5l-166 -45q-53 89 -168 89q-84 0 -135 -57t-51 -149q0 -93 56 -149t149 -56q65 0 111.5 22t66.5 50v33h-176v156 h332v-406z" />
<glyph unicode="H" horiz-adv-x="717" d="M493 0v275h-269v-275h-168v700h168v-264h269v264h168v-700h-168z" />
<glyph unicode="I" horiz-adv-x="280" d="M56 0v700h168v-700h-168z" />
<glyph unicode="J" horiz-adv-x="517" d="M466 700v-389q0 -158 -70.5 -241.5t-207.5 -83.5q-122 0 -188 69l97 129q34 -39 89 -39q68 0 90 41.5t22 140.5v373h168z" />
<glyph unicode="K" horiz-adv-x="705" d="M498 0l-191 295l-83 -93v-202h-168v700h168v-194v-108h3l76 90l177 212h200l-249 -283l263 -417h-196z" />
<glyph unicode="L" horiz-adv-x="569" d="M56 0v700h168v-544h314v-156h-482z" />
<glyph unicode="M" horiz-adv-x="817" d="M593 0v171v52.5v46t0.5 39.5t0.5 34v27.5t0.5 21.5t0.5 15.5v9.5v3h-2l-10 -18q-10 -17 -27 -48.5t-32 -57.5l-68 -123h-94l-68 121l-32.5 58.5l-27.5 49.5l-9 18h-3v-3v-9.5t0.5 -15.5t0.5 -21.5v-27.5t0.5 -34t0.5 -39.5v-46v-52.5v-171h-168v700h178l176 -313h3 l177 313h171v-700h-168z" />
<glyph unicode="N" horiz-adv-x="750" d="M523 0l-298 418h-3v-6q0 -5 0.5 -14t0.5 -21.5v-28.5t0.5 -33t0.5 -36.5v-38.5v-240h-168v700h170l298 -410h3v6v14.5t-0.5 21.5t-0.5 27.5v31v33v33.5v243h168v-700h-171z" />
<glyph unicode="O" horiz-adv-x="794" d="M28 350q0 160 104 262t265 102t265 -102t104 -262t-104 -262t-265 -102t-265 102t-104 262zM197 350q0 -93 56 -149t144 -56t144 56t56 149t-56 149.5t-144 56.5t-144 -56.5t-56 -149.5z" />
<glyph unicode="P" horiz-adv-x="614" d="M56 700h261q129 0 202.5 -64t73.5 -177q0 -111 -74 -176t-202 -65h-93v-218h-168v700zM224 364h98q52 0 77.5 24.5t25.5 67.5t-25.5 67t-77.5 24h-98v-183z" />
<glyph unicode="Q" horiz-adv-x="794" d="M766 350q0 -138 -78 -234t-207 -122v-135h-168v135q-129 26 -207 122t-78 234q0 160 104 262t265 102t265 -102t104 -262zM397 145q87 0 143.5 56.5t56.5 148.5q0 93 -56 149.5t-144 56.5t-144 -56.5t-56 -149.5t56 -149t144 -56z" />
<glyph unicode="R" horiz-adv-x="645" d="M430 0l-131 231h-35h-40v-231h-168v700h266q131 0 205 -63.5t74 -173.5q0 -72 -34 -123.5t-98 -75.5l160 -264h-199zM224 365h109q96 0 96 90q0 44 -24.5 68.5t-72.5 24.5h-108v-183z" />
<glyph unicode="S" horiz-adv-x="627" d="M27 175l160 43q11 -40 46.5 -62t92.5 -22q103 0 103 67q0 19 -8.5 32t-27.5 20.5t-36 11.5t-48 9.5t-50 10.5q-43 10 -74.5 23t-66.5 37t-53.5 63t-18.5 92q0 104 71.5 159t193.5 55q227 0 284 -183l-160 -43q-26 79 -127 79q-91 0 -91 -62q0 -16 7.5 -28t17.5 -20 t32 -15t39 -10.5t49 -10.5q13 -3 20 -4q44 -9 78 -21.5t68 -36t52.5 -63.5t18.5 -94q0 -107 -71 -161.5t-201 -54.5q-250 0 -300 189z" />
<glyph unicode="T" horiz-adv-x="658" d="M627 544h-214v-544h-168v544h-214v156h596v-156z" />
<glyph unicode="U" horiz-adv-x="710" d="M660 700v-388q0 -156 -82.5 -241t-222.5 -85t-222.5 85t-82.5 241v388h170v-383q0 -89 34 -130.5t103 -41.5q137 0 137 172v383h166z" />
<glyph unicode="V" horiz-adv-x="736" d="M475 0h-214l-250 700h191l108 -332q12 -37 22.5 -69.5t17.5 -53t11.5 -35.5t6.5 -22l3 -8h3l2 8q3 7 7.5 22t11 35t17 52t22.5 68l109 335h182z" />
<glyph unicode="W" horiz-adv-x="1065" d="M662 0l-86 289q-12 41 -22.5 78.5t-15.5 55.5l-4 18h-4q0 -1 -4.5 -18.5t-14.5 -57t-22 -83.5l-77 -282h-192l-204 700h187l79 -299q11 -43 22.5 -88t17 -65t5.5 -21h4q1 2 39 147l70 260h204l69 -262q37 -141 39 -145h3q2 4 45 168l83 305h167l-204 -700h-184z" />
<glyph unicode="X" horiz-adv-x="757" d="M526 0l-83 122l-67 99h-1q-1 0 -70 -100l-82 -121h-203l260 360l-248 340h204l80 -116l70 -98h1q2 0 65 98l75 116h201l-245 -340l254 -360h-211z" />
<glyph unicode="Y" horiz-adv-x="713" d="M440 276v-276h-168v276l-261 424l194 1l108 -191q10 -17 22.5 -39.5t18.5 -32.5l6 -11h3l7 11q6 12 17.5 33t22.5 39l112 190h179z" />
<glyph unicode="Z" horiz-adv-x="667" d="M629 538l-296 -302q-20 -20 -40.5 -39.5t-30.5 -28.5l-10 -9l2 -4h3h8t11.5 0.5t16 0.5h19.5h22.5h24.5h270v-156h-592v156l315 319q18 18 35.5 34.5t24.5 24.5l8 7l-2 4h-6q-6 0 -16 -0.5t-21.5 -0.5h-26h-26.5h-275v156h582v-162z" />
<glyph unicode="[" horiz-adv-x="434" d="M396 -62v-150h-304v1013h304v-149h-145v-714h145z" />
<glyph unicode="\" horiz-adv-x="510" d="M497 0h-140l-344 700h136z" />
<glyph unicode="]" horiz-adv-x="434" d="M38 655v150h304v-1013h-304v149h144v714h-144z" />
<glyph unicode="^" d="M333 562l-148 -197l-122 80l200 256h140l201 -256l-122 -80z" />
<glyph unicode="_" horiz-adv-x="738" d="M683 -133h-627v133h627v-133z" />
<glyph unicode="`" horiz-adv-x="585" d="M302 935l112 -181h-149l-93 140z" />
<glyph unicode="a" horiz-adv-x="623" d="M415 98h-210l-31 -98h-161l199 560h199l199 -560h-164zM373 233l-23 71q-38 119 -38 128h-4q-1 -2 -42 -134l-20 -65h127z" />
<glyph unicode="b" horiz-adv-x="556" d="M430 300v-4q46 -15 74 -49t28 -83q0 -68 -54.5 -116t-160.5 -48h-261v560h265q78 0 130 -45t52 -105q0 -42 -22 -70t-51 -40zM214 339h72q58 0 58 45q0 46 -58 46h-72v-91zM214 130h90q63 0 63 51t-63 51h-90v-102z" />
<glyph unicode="c" horiz-adv-x="627" d="M449 193l152 -40q-36 -76 -104 -120t-164 -44q-136 0 -220.5 81.5t-84.5 208.5q0 126 84.5 209t219.5 83q95 0 166 -43.5t103 -121.5l-150 -40q-49 60 -120 60q-65 0 -103.5 -40.5t-38.5 -105.5q0 -66 39.5 -106t103.5 -40q79 0 117 59z" />
<glyph unicode="d" horiz-adv-x="627" d="M56 560h230q137 0 225 -76t88 -206q0 -131 -87.5 -204.5t-226.5 -73.5h-229v560zM214 147h69q77 0 116 30.5t39 100.5q0 135 -153 135h-71v-266z" />
<glyph unicode="e" horiz-adv-x="544" d="M56 0v560h441v-147h-283v-68h194v-124h-194v-74h288v-147h-446z" />
<glyph unicode="f" horiz-adv-x="507" d="M471 413h-257v-99h186v-138h-186v-176h-158v560h415v-147z" />
<glyph unicode="g" d="M624 0h-141q0 17 0.5 27t0.5 14v6h-2q-24 -25 -67 -41.5t-96 -16.5q-123 0 -207 82.5t-84 209.5q0 126 85 208t220 82q94 0 165.5 -42.5t105.5 -122.5l-145 -39q-37 61 -126 61q-67 0 -105.5 -38.5t-38.5 -109.5q0 -68 43 -107.5t121 -39.5q35 0 74 9.5t55 21.5v31h-145 v139h287v-334z" />
<glyph unicode="h" horiz-adv-x="622" d="M566 0h-159v206h-193v-206h-158v560h158v-207h193v207h159v-560z" />
<glyph unicode="i" horiz-adv-x="270" d="M56 0v560h158v-560h-158z" />
<glyph unicode="j" horiz-adv-x="458" d="M408 560v-302q0 -131 -62 -200t-183 -69q-105 0 -163 55l87 115q28 -25 74 -25q56 0 72.5 30t16.5 105v291h158z" />
<glyph unicode="k" horiz-adv-x="632" d="M439 0l-143 232l-82 -90v-142h-158v560h158v-118v-113h4q6 6 49 58l148 173h197l-201 -220l209 -340h-181z" />
<glyph unicode="l" horiz-adv-x="492" d="M56 0v560h158v-413h246v-147h-404z" />
<glyph unicode="m" horiz-adv-x="724" d="M510 0v234v91h-3l-96 -191h-100l-98 201h-4v-92v-243h-153v560h193l74 -140q11 -21 22.5 -44t17.5 -34l6 -12h4q1 0 7 11t18.5 36t22.5 44l72 139h176v-560h-159z" />
<glyph unicode="n" horiz-adv-x="657" d="M601 0h-166l-218 315h-4v-3v-10.5t0.5 -15.5t0.5 -20v-22.5v-25.5v-27v-191h-158v560h164l219 -304h3v106v198h159v-560z" />
<glyph unicode="o" horiz-adv-x="661" d="M28 280q0 127 85 209t217 82q133 0 218 -82t85 -209t-85 -209t-218 -82q-132 0 -217 82t-85 209zM189 280q0 -65 38.5 -105.5t102.5 -40.5t103 40t39 106t-39 106t-103 40t-102.5 -40.5t-38.5 -105.5z" />
<glyph unicode="p" horiz-adv-x="545" d="M56 560h230q110 0 173.5 -55t63.5 -146q0 -92 -63 -145t-174 -53h-72v-161h-158v560zM214 290h78q34 0 52 18t18 48q0 28 -17.5 46.5t-52.5 18.5h-78v-131z" />
<glyph unicode="q" horiz-adv-x="658" d="M633 280q0 -107 -61.5 -183.5t-163.5 -99.5v-113h-158v114q-101 23 -161.5 99.5t-60.5 182.5q0 127 85 209t217 82q133 0 218 -82t85 -209zM330 134q64 0 103 40t39 106t-39 106t-103 40t-102.5 -40.5t-38.5 -105.5t38.5 -105.5t102.5 -40.5z" />
<glyph unicode="r" horiz-adv-x="580" d="M394 0l-106 177l-51 -1h-23v-176h-158v560h236q113 0 176 -52t63 -141q0 -116 -94 -158l127 -209h-170zM214 297h87q68 0 68 60t-68 60h-87v-120z" />
<glyph unicode="s" horiz-adv-x="540" d="M27 141l144 38q6 -26 31.5 -47t74.5 -21q74 0 74 51q0 11 -3 18.5t-11 13.5t-16.5 10t-24.5 8t-29 6.5t-36.5 7.5t-41.5 9q-33 8 -56.5 17.5t-47 27.5t-36 47t-12.5 68q0 88 59.5 132t167.5 44q98 0 160 -36t82 -104l-138 -37q-16 55 -96 55q-72 0 -72 -47 q0 -23 23.5 -33.5t87.5 -23.5q14 -2 22 -4q180 -34 180 -176q0 -90 -64.5 -133t-170.5 -43q-42 0 -79.5 7t-74 22.5t-62 47t-35.5 75.5z" />
<glyph unicode="t" horiz-adv-x="577" d="M546 413h-178v-413h-159v413h-178v147h515v-147z" />
<glyph unicode="u" horiz-adv-x="635" d="M585 560v-289q0 -142 -72 -212t-195 -70q-125 0 -196.5 70t-71.5 212v289h161v-304q0 -122 108 -122t108 122v304h158z" />
<glyph unicode="v" horiz-adv-x="644" d="M419 0h-194l-214 560h177l79 -221q38 -108 59 -171h3l3 8q3 8 8 22.5t11.5 34t16.5 48t20 59.5l75 220h169z" />
<glyph unicode="w" horiz-adv-x="892" d="M547 0l-58 191l-41 138h-3l-42 -139l-58 -190h-166l-163 560h169l56 -207q12 -44 22 -81.5t13 -51.5l4 -14h3l3 14q4 13 13.5 46.5t20.5 71.5l50 177h172l48 -178q10 -38 18 -71t11 -46l3 -14h3l3 14q4 14 14 51.5t22 81.5l59 207h153l-163 -560h-166z" />
<glyph unicode="x" horiz-adv-x="634" d="M423 0l-61 89q-14 20 -27.5 40t-19.5 29l-6 8h-1q-2 0 -52 -77l-57 -89h-179l197 284l-184 276h189l52 -82q51 -81 52 -81h1q2 0 55 85l47 78h171l-185 -276l199 -284h-191z" />
<glyph unicode="y" horiz-adv-x="591" d="M374 0h-159v191l-204 369h181l59 -113q12 -24 25 -50.5t20 -40.5l7 -14h3l7 14q7 13 20 40.5t25 50.5l58 113h164l-206 -369v-191z" />
<glyph unicode="z" horiz-adv-x="573" d="M536 407l-197 -176q-26 -23 -51 -43.5t-35 -28.5t-10 -9l2 -4h5h14t20.5 0.5t26.5 0.5h30h195v-147h-499v153l214 188q23 20 43.5 37.5t27.5 23.5l7 6l-2 5h-83h-198v147h490v-153z" />
<glyph unicode="{" horiz-adv-x="472" d="M287 504v-52q0 -36 -9 -65.5t-21.5 -46t-27 -28.5t-24.5 -16.5t-15 -4.5q4 0 14.5 -5t25 -17.5t27 -30t21.5 -46t9 -61.5v-53q0 -90 39.5 -121.5t106.5 -31.5v-142q-141 0 -219.5 73.5t-78.5 195.5v69q0 15 -2 27.5t-5 21.5t-8 16.5t-10 12.5t-11.5 8.5t-11.5 6t-11 4 t-9 1.5t-7 1h-4v143l4 1h7t9 1.5t11 4t11 6t11 8.5t10 12.5t8.5 16.5t5.5 21.5t2 27.5v69q0 121 78.5 194t219.5 73v-143q-32 0 -55 -5.5t-45.5 -20.5t-34 -46.5t-11.5 -78.5z" />
<glyph unicode="|" horiz-adv-x="251" d="M60 775h131v-849h-131v849z" />
<glyph unicode="}" horiz-adv-x="472" d="M185 78v52q0 36 9 65.5t21.5 46t27 28.5t24.5 16.5t15 4.5q-4 0 -14.5 5t-25 17.5t-27 30t-21.5 46t-9 61.5v53q0 90 -39.5 121.5t-106.5 31.5v142q141 0 219 -73.5t78 -195.5v-69q0 -15 2 -27.5t5.5 -21.5t8.5 -16.5t10 -12.5t11.5 -8.5t11.5 -6t11 -4t9 -1.5t7 -1h4 v-143l-4 -1h-7t-9 -1.5t-11 -4t-11.5 -6t-11.5 -8.5t-10 -12.5t-8.5 -16.5t-5.5 -21.5t-2 -27.5v-69q0 -121 -78 -194t-219 -73v143q32 0 55 5.5t45.5 20.5t34 46.5t11.5 78.5z" />
<glyph unicode="~" d="M540 365l25 -132q-10 -16 -43.5 -32t-72.5 -16q-40 0 -106.5 20t-107.5 20q-67 0 -106 -43l-27 132q12 16 45.5 31.5t72.5 15.5t105.5 -19.5t107.5 -19.5q57 0 107 43z" />
<glyph unicode="&#xa1;" horiz-adv-x="348" d="M174 709q41 0 63.5 -22t22.5 -57q0 -34 -22.5 -56t-63.5 -22t-63 22t-22 56q0 35 22 57t63 22zM90 0v500h168v-500h-168z" />
<glyph unicode="&#xa2;" horiz-adv-x="575" d="M298 154q70 0 104 64l147 -39q-23 -60 -72.5 -103t-113.5 -59v-96h-135v97q-88 22 -144 95t-56 175q0 99 54 168t146 89v104h135v-104q65 -14 114.5 -53t72.5 -104l-146 -42q-33 68 -105 68q-57 0 -87 -34.5t-30 -93.5q0 -61 31 -96.5t85 -35.5z" />
<glyph unicode="&#xa3;" horiz-adv-x="531" d="M495 147v-147h-459v147q28 4 36.5 14.5t8.5 37.5v2h-47v106h37q-8 72 -8 97q0 77 51 122t151 45q201 0 227 -170l-146 -40q-11 45 -29 61t-44 16q-28 0 -42 -13.5t-14 -49.5q0 -29 6 -68h159v-106h-145v-7q0 -29 -16 -44l2 -4h6h16t23.5 0.5t33 0.5h40.5h153z" />
<glyph unicode="&#xa4;" horiz-adv-x="660" d="M630 494l-69 -68q42 -67 42 -146t-45 -150l65 -66l-81 -82l-67 67q-67 -43 -147 -43t-144 42l-66 -66l-82 82l65 66q-45 71 -45 150q0 80 42 146l-68 68l81 82l69 -68q65 45 148 45q81 0 152 -45l68 68zM329 405q-52 0 -88.5 -35.5t-36.5 -89.5q0 -57 36 -91t89 -34 q54 0 89.5 34t35.5 91q0 55 -36 90t-89 35z" />
<glyph unicode="&#xa5;" horiz-adv-x="542" d="M440 384h53v-85h-93l-18 -38h111v-85h-143v-176h-159v176h-139v85h107l-18 38h-89v85h50l-82 176h174l53 -148q24 -69 25 -69h3q1 0 25 69l53 148h169z" />
<glyph unicode="&#xa6;" horiz-adv-x="251" d="M191 490h-131v285h131v-285zM191 -74h-131v285h131v-285z" />
<glyph unicode="&#xa7;" d="M523 258q71 -41 71 -118q0 -154 -243 -154q-110 0 -185.5 33.5t-92.5 106.5l156 42q11 -66 108 -66q85 0 85 45q0 9 -3 15t-11 11t-17 8t-27 7t-33.5 6.5t-44.5 7.5t-54 10q-152 30 -152 132q0 76 73 112q-63 34 -63 109t59.5 112t168.5 37q217 0 268 -135l-137 -37 q-31 65 -125 65q-67 0 -67 -38q0 -9 2.5 -15.5t10 -11.5t15 -8.5t22.5 -6.5t27 -5t34.5 -5.5t39.5 -6.5q92 -16 140.5 -47.5t48.5 -95.5q0 -77 -74 -109zM231 370q0 -15 9 -25.5t30.5 -18.5t38 -11.5t51.5 -10t50 -9.5q34 15 34 48t-31 46t-100 24q-13 2 -20 3l-14 3 q-48 -14 -48 -49z" />
<glyph unicode="&#xa8;" horiz-adv-x="585" d="M186 762q-31 0 -52 21.5t-21 51.5t21.5 52t53.5 22q30 0 50.5 -22t20.5 -52t-21 -51.5t-52 -21.5zM399 762q-31 0 -52 21.5t-21 51.5t21.5 52t51.5 22q31 0 52.5 -22t21.5 -52t-21.5 -51.5t-52.5 -21.5z" />
<glyph unicode="&#xa9;" horiz-adv-x="783" d="M391 629q153 0 258.5 -101.5t105.5 -262.5q0 -160 -105.5 -262t-258.5 -102t-258 102t-105 262q0 161 105 262.5t258 101.5zM391 549q-123 0 -202 -79t-79 -204t79 -205t202 -80t202 79.5t79 205.5q0 125 -79 204t-202 79zM463 208l100 -33q-22 -46 -67.5 -74t-106.5 -28 q-87 0 -140.5 53t-53.5 137t54 138t140 54q62 0 106.5 -29t64.5 -80l-99 -26q-23 34 -68 34q-42 0 -66 -24.5t-24 -65.5t24.5 -65t65.5 -24q46 0 70 33z" />
<glyph unicode="&#xaa;" horiz-adv-x="426" d="M133 235h-97l113 325h130l110 -325h-100l-17 53h-122zM213 478h-4l-3 -8q-2 -8 -8 -27t-11 -35l-14 -47h76l-15 47q-5 17 -10.5 35.5t-7.5 26.5zM391 173v-101h-356v101h356z" />
<glyph unicode="&#xab;" horiz-adv-x="737" d="M296 515l90 -90l-150 -142v-4l151 -141l-92 -92l-235 235zM586 515l90 -90l-149 -142v-4l150 -141l-92 -92l-235 235z" />
<glyph unicode="&#xad;" horiz-adv-x="571" d="M489 212h-407v137h407v-137z" />
<glyph unicode="&#xae;" horiz-adv-x="783" d="M391 629q153 0 258.5 -101.5t105.5 -262.5q0 -160 -105.5 -262t-258.5 -102t-258 102t-105 262q0 161 105 262.5t258 101.5zM391 549q-123 0 -202 -79t-79 -204t79 -205t202 -80t202 79.5t79 205.5q0 125 -79 204t-202 79zM448 82l-65 124h-26h-13v-124h-110v369h161 q76 0 118.5 -35t42.5 -94q0 -69 -64 -96l78 -144h-122zM344 286h57q43 0 43 35t-43 35h-57v-70z" />
<glyph unicode="&#xaf;" horiz-adv-x="585" d="M459 757h-333v138h333v-138z" />
<glyph unicode="&#xb0;" horiz-adv-x="302" d="M151 566q-62 0 -101 36.5t-39 97.5t39 97.5t101 36.5q63 0 101.5 -36t38.5 -98q0 -61 -38.5 -97.5t-101.5 -36.5zM151 647q24 0 38.5 14.5t14.5 38.5q0 25 -14.5 39.5t-38.5 14.5t-38 -14.5t-14 -39.5q0 -24 14.5 -38.5t37.5 -14.5z" />
<glyph unicode="&#xb1;" d="M537 465v-137h-129v-118h-146l-1 118h-130v137h130v136h146v-136h130zM131 138h406v-137h-406v137z" />
<glyph unicode="&#xb2;" horiz-adv-x="340" d="M30 476v123l130 79q47 27 47 57q0 39 -44 39q-42 0 -51 -40l-87 24q28 112 150 112q65 0 101 -31t36 -91q0 -64 -58 -108q-15 -12 -40.5 -29l-43.5 -29l-18 -11l2 -5q36 3 51 3h112v-93h-287z" />
<glyph unicode="&#xb3;" horiz-adv-x="340" d="M249 675v-4q28 -4 49 -28t21 -62q0 -48 -39 -80.5t-99 -32.5q-135 0 -160 111l92 28q7 -48 56 -48q23 0 36.5 11.5t13.5 29.5t-13 29t-36 11h-27v66h22q22 0 35 11.5t13 29.5q0 16 -12 26t-33 10q-45 0 -53 -49l-87 23q8 52 44.5 82.5t102.5 30.5t101 -29t35 -77 q0 -36 -18 -60.5t-44 -28.5z" />
<glyph unicode="&#xb4;" horiz-adv-x="585" d="M320 754h-148l111 181l131 -41z" />
<glyph unicode="&#xb6;" horiz-adv-x="693" d="M469 -140v544h-67v-544h-168v326q-100 0 -153 49t-53 142q0 89 53 136t153 47h403v-700h-168z" />
<glyph unicode="&#xb7;" horiz-adv-x="283" d="M142 203q-41 0 -63.5 22t-22.5 57q0 34 22.5 56t63.5 22t63 -22t22 -56q0 -35 -22 -57t-63 -22z" />
<glyph unicode="&#xb8;" horiz-adv-x="585" d="M418 -73q0 -105 -154 -105q-61 0 -92 12v102q24 -8 66 -8q66 0 66 23q0 30 -125 29v81h111v-32q58 -2 93 -27t35 -75z" />
<glyph unicode="&#xb9;" horiz-adv-x="340" d="M316 476h-252v92h73v95q0 52 7 75h-5l-3 -4q-4 -4 -9.5 -10.5t-10.5 -11.5l-23 -24l-67 64l116 110h101v-293h73v-93z" />
<glyph unicode="&#xba;" horiz-adv-x="413" d="M35 399q0 75 49.5 123.5t121.5 48.5t122 -48.5t50 -123.5q0 -73 -50 -121.5t-122 -48.5t-121.5 48.5t-49.5 121.5zM133 399q0 -34 19 -55.5t54 -21.5q36 0 55 21.5t19 55.5q0 35 -19 57t-55 22q-35 0 -54 -22t-19 -57zM368 70h-323v100h323v-100z" />
<glyph unicode="&#xbb;" horiz-adv-x="737" d="M442 46l-92 92l151 141v4l-150 142l90 90l236 -234zM152 46l-92 92l150 141v4l-149 142l90 90l236 -234z" />
<glyph unicode="&#xbc;" horiz-adv-x="850" d="M316 314h-252v92h73v95q0 52 7 75h-5l-3 -4q-4 -4 -9.5 -10.5t-10.5 -11.5l-23 -24l-67 64l116 110h101v-293h73v-93zM579 700l-209 -700h-99l209 700h99zM790 1h-101v79h-168v87l113 220h156v-214h49v-93h-49v-79zM689 173v75q0 43 2 59h-6q-1 0 -31 -62.5t-32 -67.5 l3 -4h38h26z" />
<glyph unicode="&#xbd;" horiz-adv-x="850" d="M316 314h-252v92h73v95q0 52 7 75h-5l-3 -4q-4 -4 -9.5 -10.5t-10.5 -11.5l-23 -24l-67 64l116 110h101v-293h73v-93zM579 700l-209 -700h-99l209 700h99zM540 1v123l130 79q47 28 47 57q0 39 -44 39q-42 0 -51 -40l-87 24q28 112 150 112q65 0 101 -31t36 -91 q0 -64 -58 -108q-15 -12 -40.5 -29t-43.5 -28l-18 -12l2 -5q36 3 51 3h112v-93h-287z" />
<glyph unicode="&#xbe;" horiz-adv-x="850" d="M249 513v-4q28 -4 49 -28t21 -62q0 -48 -39 -80.5t-99 -32.5q-135 0 -160 111l92 28q7 -48 56 -48q23 0 36.5 11.5t13.5 29.5t-13 29t-36 11h-27v66h22q22 0 35 11.5t13 29.5q0 16 -12 26t-33 10q-45 0 -53 -49l-87 23q8 52 44.5 82.5t102.5 30.5t101 -29t35 -77 q0 -36 -18 -60.5t-44 -28.5zM579 700l-209 -700h-99l209 700h99zM790 1h-101v79h-168v87l113 220h156v-214h49v-93h-49v-79zM689 173v75q0 43 2 59h-6q-1 0 -31 -62.5t-32 -67.5l3 -4h38h26z" />
<glyph unicode="&#xbf;" horiz-adv-x="576" d="M293 709q41 0 63.5 -22t22.5 -57q0 -34 -22.5 -56t-63.5 -22t-63 22t-22 56q0 35 22 57t63 22zM377 500v-170q-104 -32 -142 -58t-38 -57q0 -30 20.5 -50t66.5 -20q44 0 68 17t38 52l158 -42q-23 -85 -94 -135.5t-176 -50.5q-115 0 -182.5 58.5t-67.5 148.5 q0 147 181 213v94h168z" />
<glyph unicode="&#xc0;" horiz-adv-x="758" d="M308 754l-93 140l130 41l112 -181h-149zM523 116h-291l-42 -116h-177l270 700h191l271 -700h-180zM468 269l-50 139q-9 22 -19 50t-15 40l-5 13h-3q0 -1 -39 -102l-50 -140h181z" />
<glyph unicode="&#xc1;" horiz-adv-x="758" d="M449 754h-149l112 181l131 -41zM523 116h-291l-42 -116h-177l270 700h191l271 -700h-180zM468 269l-50 139q-9 22 -19 50t-15 40l-5 13h-3q0 -1 -39 -102l-50 -140h181z" />
<glyph unicode="&#xc2;" horiz-adv-x="758" d="M268 739l-72 88l178 130l178 -130l-71 -88l-107 75zM523 116h-291l-42 -116h-177l270 700h191l271 -700h-180zM468 269l-50 139q-9 22 -19 50t-15 40l-5 13h-3q0 -1 -39 -102l-50 -140h181z" />
<glyph unicode="&#xc3;" horiz-adv-x="758" d="M298 794q-57 0 -89 -28l-24 121q9 11 35.5 21.5t61.5 10.5q32 0 85 -15t87 -15q50 0 87 28l24 -121q-9 -11 -35.5 -21.5t-60.5 -10.5q-33 0 -86 15t-85 15zM523 116h-291l-42 -116h-177l270 700h191l271 -700h-180zM468 269l-50 139q-9 22 -19 50t-15 40l-5 13h-3 q0 -1 -39 -102l-50 -140h181z" />
<glyph unicode="&#xc4;" horiz-adv-x="758" d="M272 762q-31 0 -52.5 21.5t-21.5 51.5t22 52t53 22q30 0 51 -22t21 -52t-21.5 -51.5t-51.5 -21.5zM485 762q-31 0 -52 21.5t-21 51.5t21 52t52 22q30 0 51.5 -22t21.5 -52t-21 -51.5t-52 -21.5zM523 116h-291l-42 -116h-177l270 700h191l271 -700h-180zM468 269l-50 139 q-9 22 -19 50t-15 40l-5 13h-3q0 -1 -39 -102l-50 -140h181z" />
<glyph unicode="&#xc5;" horiz-adv-x="758" d="M378 730q-62 0 -100.5 32t-38.5 90q0 59 38.5 91t100.5 32q63 0 101.5 -32t38.5 -91q0 -58 -38.5 -90t-101.5 -32zM378 894q-22 0 -35 -11t-13 -31q0 -19 13 -30t35 -11q48 0 48 41q0 42 -48 42zM523 116h-291l-42 -116h-177l270 700h191l271 -700h-180zM468 269l-50 139 q-9 22 -19 50t-15 40l-5 13h-3q0 -1 -39 -102l-50 -140h181z" />
<glyph unicode="&#xc6;" horiz-adv-x="1008" d="M966 147v-147h-511v124h-219l-45 -124h-178l271 700h171h505v-147h-342v-126h261v-141h-261v-139h348zM455 264v289h-62l-106 -289h168z" />
<glyph unicode="&#xc7;" horiz-adv-x="749" d="M559 251l165 -44q-29 -76 -88 -129t-136 -76q34 -28 34 -75q0 -105 -154 -105q-61 0 -92 12v102q22 -8 66 -8q66 0 66 23q0 30 -126 29v18q-120 29 -193 124t-73 230q0 159 102.5 260.5t260.5 101.5q116 0 202.5 -56.5t123.5 -145.5l-166 -45q-57 89 -168 89 q-85 0 -135.5 -57t-50.5 -149t51.5 -148.5t133.5 -56.5q65 0 109.5 29.5t67.5 76.5z" />
<glyph unicode="&#xc8;" horiz-adv-x="613" d="M290 935l112 -181h-149l-94 140zM56 0v700h510v-156h-342v-120h252v-140h-252v-128h347v-156h-515z" />
<glyph unicode="&#xc9;" horiz-adv-x="613" d="M394 754h-149l112 181l130 -41zM56 0v700h510v-156h-342v-120h252v-140h-252v-128h347v-156h-515z" />
<glyph unicode="&#xca;" horiz-adv-x="613" d="M497 827l-72 -88l-106 75l-107 -75l-71 88l178 130zM56 0v700h510v-156h-342v-120h252v-140h-252v-128h347v-156h-515z" />
<glyph unicode="&#xcb;" horiz-adv-x="613" d="M216 762q-31 0 -52 21.5t-21 51.5t22 52t53 22q30 0 51 -22t21 -52t-21.5 -51.5t-52.5 -21.5zM430 762q-31 0 -52.5 21.5t-21.5 51.5t21.5 52t52.5 22q30 0 51.5 -22t21.5 -52t-21 -51.5t-52 -21.5zM56 0v700h510v-156h-342v-120h252v-140h-252v-128h347v-156h-515z" />
<glyph unicode="&#xcc;" horiz-adv-x="280" d="M107 935l111 -181h-148l-94 140zM56 0v700h168v-700h-168z" />
<glyph unicode="&#xcd;" horiz-adv-x="280" d="M211 754h-149l112 181l130 -41zM56 0v700h168v-700h-168z" />
<glyph unicode="&#xce;" horiz-adv-x="280" d="M279 833l-77 -84l-62 55l-62 -55l-77 84l139 124zM56 0v700h168v-700h-168z" />
<glyph unicode="&#xcf;" horiz-adv-x="280" d="M56 762q-31 0 -52 21.5t-21 51.5t22 52t53 22q30 0 51 -22t21 -52t-21.5 -51.5t-52.5 -21.5zM224 762q-31 0 -52.5 21.5t-21.5 51.5t21.5 52t52.5 22q30 0 51.5 -22t21.5 -52t-21.5 -51.5t-51.5 -21.5zM56 0v700h168v-700h-168z" />
<glyph unicode="&#xd0;" horiz-adv-x="751" d="M56 700h298q159 0 264 -98.5t105 -254.5t-105 -251.5t-263 -95.5h-299v281h-46v148h46v271zM224 156h121q87 0 148 47.5t61 143.5t-61.5 146.5t-147.5 50.5h-121v-115h143v-148h-143v-125z" />
<glyph unicode="&#xd1;" horiz-adv-x="750" d="M536 917l24 -121q-9 -11 -35.5 -21.5t-60.5 -10.5q-32 0 -86 15t-86 15q-58 0 -88 -28l-25 121q9 11 35.5 21.5t61.5 10.5q32 0 85.5 -15t87.5 -15q50 0 87 28zM523 0l-298 418h-3v-6q0 -5 0.5 -14t0.5 -21.5v-28.5t0.5 -33t0.5 -36.5v-38.5v-240h-168v700h170l298 -410 h3v6v14.5t-0.5 21.5t-0.5 27.5v31v33v33.5v243h168v-700h-171z" />
<glyph unicode="&#xd2;" horiz-adv-x="794" d="M365 935l111 -181h-148l-94 140zM28 350q0 160 104 262t265 102t265 -102t104 -262t-104 -262t-265 -102t-265 102t-104 262zM197 350q0 -93 56 -149t144 -56t144 56t56 149t-56 149.5t-144 56.5t-144 -56.5t-56 -149.5z" />
<glyph unicode="&#xd3;" horiz-adv-x="794" d="M469 754h-149l112 181l130 -41zM28 350q0 160 104 262t265 102t265 -102t104 -262t-104 -262t-265 -102t-265 102t-104 262zM197 350q0 -93 56 -149t144 -56t144 56t56 149t-56 149.5t-144 56.5t-144 -56.5t-56 -149.5z" />
<glyph unicode="&#xd4;" horiz-adv-x="794" d="M572 827l-72 -88l-106 75l-107 -75l-72 88l179 130zM28 350q0 160 104 262t265 102t265 -102t104 -262t-104 -262t-265 -102t-265 102t-104 262zM197 350q0 -93 56 -149t144 -56t144 56t56 149t-56 149.5t-144 56.5t-144 -56.5t-56 -149.5z" />
<glyph unicode="&#xd5;" horiz-adv-x="794" d="M561 917l24 -121q-9 -11 -35.5 -21.5t-60.5 -10.5q-33 0 -86 15t-86 15q-56 0 -88 -28l-25 121q9 11 36 21.5t62 10.5q32 0 85 -15t87 -15q50 0 87 28zM28 350q0 160 104 262t265 102t265 -102t104 -262t-104 -262t-265 -102t-265 102t-104 262zM197 350q0 -93 56 -149 t144 -56q87 0 143.5 56.5t56.5 148.5q0 93 -56 149.5t-144 56.5t-144 -56.5t-56 -149.5z" />
<glyph unicode="&#xd6;" horiz-adv-x="794" d="M291 762q-31 0 -52 21.5t-21 51.5t22 52t53 22q30 0 51 -22t21 -52t-21.5 -51.5t-52.5 -21.5zM505 762q-31 0 -52.5 21.5t-21.5 51.5t21.5 52t52.5 22q30 0 51.5 -22t21.5 -52t-21.5 -51.5t-51.5 -21.5zM28 350q0 160 104 262t265 102t265 -102t104 -262t-104 -262 t-265 -102t-265 102t-104 262zM197 350q0 -93 56 -149t144 -56t144 56t56 149t-56 149.5t-144 56.5t-144 -56.5t-56 -149.5z" />
<glyph unicode="&#xd7;" d="M434 281l112 -111l-100 -101l-112 111l-112 -111l-100 101l112 111l-112 111l100 99l112 -109l112 109l100 -100z" />
<glyph unicode="&#xd8;" horiz-adv-x="794" d="M752 707l-80 -105q94 -100 94 -252q0 -160 -104 -262t-265 -102q-94 0 -171 37l-81 -105l-108 83l80 103q-89 100 -89 246q0 160 104 262t265 102q89 0 165 -34l82 107zM397 556q-88 0 -144 -56.5t-56 -149.5q0 -71 34 -122l242 314q-36 14 -76 14zM397 145 q87 0 143.5 56.5t56.5 148.5q0 79 -40 131l-245 -320q40 -16 85 -16z" />
<glyph unicode="&#xd9;" horiz-adv-x="710" d="M327 935l112 -181h-149l-93 140zM660 700v-388q0 -156 -82.5 -241t-222.5 -85t-222.5 85t-82.5 241v388h170v-383q0 -89 34 -130.5t103 -41.5q137 0 137 172v383h166z" />
<glyph unicode="&#xda;" horiz-adv-x="710" d="M432 754h-149l112 181l130 -41zM660 700v-388q0 -156 -82.5 -241t-222.5 -85t-222.5 85t-82.5 241v388h170v-383q0 -89 34 -130.5t103 -41.5q137 0 137 172v383h166z" />
<glyph unicode="&#xdb;" horiz-adv-x="710" d="M535 827l-72 -88l-106 75l-107 -75l-72 88l179 130zM660 700v-388q0 -156 -82.5 -241t-222.5 -85t-222.5 85t-82.5 241v388h170v-383q0 -89 34 -130.5t103 -41.5q137 0 137 172v383h166z" />
<glyph unicode="&#xdc;" horiz-adv-x="710" d="M254 762q-31 0 -52 21.5t-21 51.5t22 52t53 22q30 0 51 -22t21 -52t-21.5 -51.5t-52.5 -21.5zM467 762q-31 0 -52 21.5t-21 51.5t21.5 52t51.5 22q31 0 52.5 -22t21.5 -52t-21.5 -51.5t-52.5 -21.5zM660 700v-388q0 -156 -82.5 -241t-222.5 -85t-222.5 85t-82.5 241v388 h170v-383q0 -89 34 -130.5t103 -41.5q137 0 137 172v383h166z" />
<glyph unicode="&#xdd;" horiz-adv-x="713" d="M444 754h-149l112 181l130 -41zM440 276v-276h-168v276l-261 424l194 1l108 -191q10 -17 22.5 -39.5t18.5 -32.5l6 -11h3l7 11q6 12 17.5 33t22.5 39l112 190h179z" />
<glyph unicode="&#xde;" horiz-adv-x="607" d="M224 581h86q129 0 202 -63.5t73 -173.5q0 -108 -73 -168.5t-202 -60.5h-86v-115h-168v700h168v-119zM224 264h96q48 0 72.5 21.5t24.5 59.5q0 37 -24.5 58.5t-72.5 21.5h-96v-161z" />
<glyph unicode="&#xdf;" horiz-adv-x="610" d="M422 339h3q70 0 117 -48t47 -123q0 -77 -49 -129.5t-134 -52.5q-104 0 -146 48l64 111q31 -29 59 -29q26 0 40.5 15.5t14.5 34.5q0 25 -17.5 40.5t-51.5 15.5h-86v104l45 84l-2 3h-60h-52v-413h-158v560h484l-119 -218z" />
<glyph unicode="&#xe0;" horiz-adv-x="623" d="M243 614l-94 140l131 41l112 -181h-149zM415 98h-210l-31 -98h-161l199 560h199l199 -560h-164zM373 233l-23 71q-38 119 -38 128h-4q-1 -2 -42 -134l-20 -65h127z" />
<glyph unicode="&#xe1;" horiz-adv-x="623" d="M384 614h-149l112 181l130 -41zM415 98h-210l-31 -98h-161l199 560h199l199 -560h-164zM373 233l-23 71q-38 119 -38 128h-4q-1 -2 -42 -134l-20 -65h127z" />
<glyph unicode="&#xe2;" horiz-adv-x="623" d="M251 609l-77 84l139 124l139 -124l-77 -84l-62 55zM415 98h-210l-31 -98h-161l199 560h199l199 -560h-164zM373 233l-23 71q-38 119 -38 128h-4q-1 -2 -42 -134l-20 -65h127z" />
<glyph unicode="&#xe3;" horiz-adv-x="623" d="M241 654q-46 0 -78 -28l-25 121q7 11 32.5 21.5t53.5 10.5q30 0 77 -15t77 -15q47 0 79 28l24 -121q-6 -10 -31.5 -21t-54.5 -11t-77 15t-77 15zM415 98h-210l-31 -98h-161l199 560h199l199 -560h-164zM373 233l-23 71q-38 119 -38 128h-4q-1 -2 -42 -134l-20 -65h127z " />
<glyph unicode="&#xe4;" horiz-adv-x="623" d="M206 622q-31 0 -52 21.5t-21 51.5t22 52t53 22q30 0 51 -22t21 -52t-21.5 -51.5t-52.5 -21.5zM420 622q-31 0 -52.5 21.5t-21.5 51.5t21.5 52t52.5 22q30 0 51.5 -22t21.5 -52t-21 -51.5t-52 -21.5zM415 98h-210l-31 -98h-161l199 560h199l199 -560h-164zM373 233l-23 71 q-38 119 -38 128h-4q-1 -2 -42 -134l-20 -65h127z" />
<glyph unicode="&#xe5;" horiz-adv-x="623" d="M313 590q-62 0 -100.5 32t-38.5 90q0 59 38.5 91t100.5 32q63 0 101.5 -32.5t38.5 -90.5t-38.5 -90t-101.5 -32zM313 754q-22 0 -35 -11t-13 -31q0 -19 13 -30t35 -11q48 0 48 41q0 42 -48 42zM415 98h-210l-31 -98h-161l199 560h199l199 -560h-164zM373 233l-23 71 q-38 119 -38 128h-4q-1 -2 -42 -134l-20 -65h127z" />
<glyph unicode="&#xe6;" horiz-adv-x="839" d="M797 147v-147h-437v98h-156l-30 -98h-161l202 560h577v-147h-282v-68h193v-124h-193v-74h287zM360 224v195h-57l-60 -195h117z" />
<glyph unicode="&#xe7;" horiz-adv-x="627" d="M449 193l152 -40q-55 -115 -170 -150q35 -25 35 -76q0 -104 -154 -104q-61 0 -92 12v101q24 -8 67 -8q65 0 65 23q0 32 -125 29v24q-92 29 -145.5 102.5t-53.5 172.5q0 126 84.5 209t219.5 83q95 0 166 -43.5t103 -121.5l-150 -40q-49 60 -120 60q-65 0 -103.5 -40.5 t-38.5 -105.5q0 -66 39.5 -106t103.5 -40q79 0 117 59z" />
<glyph unicode="&#xe8;" horiz-adv-x="544" d="M245 795l112 -181h-149l-94 140zM56 0v560h441v-147h-283v-68h194v-124h-194v-74h288v-147h-446z" />
<glyph unicode="&#xe9;" horiz-adv-x="544" d="M349 614h-149l112 181l130 -41zM56 0v560h441v-147h-283v-68h194v-124h-194v-74h288v-147h-446z" />
<glyph unicode="&#xea;" horiz-adv-x="544" d="M452 687l-72 -88l-106 75l-107 -75l-71 88l178 130zM56 0v560h441v-147h-283v-68h194v-124h-194v-74h288v-147h-446z" />
<glyph unicode="&#xeb;" horiz-adv-x="544" d="M171 622q-31 0 -52 21.5t-21 51.5t22 52t53 22q30 0 51 -22t21 -52t-21.5 -51.5t-52.5 -21.5zM385 622q-31 0 -52.5 21.5t-21.5 51.5t21.5 52t52.5 22q30 0 51.5 -22t21.5 -52t-21 -51.5t-52 -21.5zM56 0v560h441v-147h-283v-68h194v-124h-194v-74h288v-147h-446z" />
<glyph unicode="&#xec;" horiz-adv-x="270" d="M103 795l112 -181h-149l-93 140zM56 0v560h158v-560h-158z" />
<glyph unicode="&#xed;" horiz-adv-x="270" d="M207 614h-149l112 181l131 -41zM56 0v560h158v-560h-158z" />
<glyph unicode="&#xee;" horiz-adv-x="270" d="M275 693l-77 -84l-62 55l-61 -55l-77 84l138 124zM56 0v560h158v-560h-158z" />
<glyph unicode="&#xef;" horiz-adv-x="270" d="M53 622q-31 0 -52.5 21.5t-21.5 51.5t22 52t53 22q30 0 51 -22t21 -52t-21 -51.5t-52 -21.5zM220 622q-31 0 -52 21.5t-21 51.5t21.5 52t51.5 22q31 0 52.5 -22t21.5 -52t-21.5 -51.5t-52.5 -21.5zM56 0v560h158v-560h-158z" />
<glyph unicode="&#xf0;" horiz-adv-x="627" d="M56 560h230q137 0 225 -76t88 -206q0 -131 -87.5 -204.5t-226.5 -73.5h-229v223h-46v113h46v224zM214 147h69q77 0 116 30.5t39 100.5q0 135 -153 135h-71v-77h134v-113h-134v-76z" />
<glyph unicode="&#xf1;" horiz-adv-x="657" d="M469 777l24 -121q-7 -11 -32 -21.5t-54 -10.5t-77 15t-77 15q-46 0 -78 -28l-25 121q7 11 32.5 21.5t53.5 10.5q30 0 77 -15t77 -15q47 0 79 28zM601 0h-166l-218 315h-4v-3v-10.5t0.5 -15.5t0.5 -20v-22.5v-25.5v-27v-191h-158v560h164l219 -304h3v106v198h159v-560z " />
<glyph unicode="&#xf2;" horiz-adv-x="661" d="M296 795l112 -181h-148l-94 140zM28 280q0 127 85 209t217 82q133 0 218 -82t85 -209t-85 -209t-218 -82q-132 0 -217 82t-85 209zM189 280q0 -65 38.5 -105.5t102.5 -40.5t103 40t39 106t-39 106t-103 40t-102.5 -40.5t-38.5 -105.5z" />
<glyph unicode="&#xf3;" horiz-adv-x="661" d="M401 614h-149l112 181l130 -41zM28 280q0 127 85 209t217 82q133 0 218 -82t85 -209t-85 -209t-218 -82q-132 0 -217 82t-85 209zM189 280q0 -65 38.5 -105.5t102.5 -40.5t103 40t39 106t-39 106t-103 40t-102.5 -40.5t-38.5 -105.5z" />
<glyph unicode="&#xf4;" horiz-adv-x="661" d="M504 687l-72 -88l-106 75l-107 -75l-72 88l179 130zM28 280q0 127 85 209t217 82q133 0 218 -82t85 -209t-85 -209t-218 -82q-132 0 -217 82t-85 209zM189 280q0 -65 38.5 -105.5t102.5 -40.5t103 40t39 106t-39 106t-103 40t-102.5 -40.5t-38.5 -105.5z" />
<glyph unicode="&#xf5;" horiz-adv-x="661" d="M473 777l25 -121q-7 -11 -32.5 -21.5t-53.5 -10.5q-29 0 -77 15t-77 15q-48 0 -78 -28l-26 121q8 11 33.5 21.5t53.5 10.5q29 0 76.5 -15t77.5 -15q46 0 78 28zM28 280q0 127 85 209t217 82q133 0 218 -82t85 -209t-85 -209t-218 -82q-132 0 -217 82t-85 209zM189 280 q0 -65 38.5 -105.5t102.5 -40.5t103 40t39 106t-39 106t-103 40t-102.5 -40.5t-38.5 -105.5z" />
<glyph unicode="&#xf6;" horiz-adv-x="661" d="M223 622q-31 0 -52 21.5t-21 51.5t22 52t53 22q30 0 51 -22t21 -52t-21.5 -51.5t-52.5 -21.5zM437 622q-31 0 -52.5 21.5t-21.5 51.5t21.5 52t52.5 22q30 0 51.5 -22t21.5 -52t-21.5 -51.5t-51.5 -21.5zM28 280q0 127 85 209t217 82q133 0 218 -82t85 -209t-85 -209 t-218 -82q-132 0 -217 82t-85 209zM189 280q0 -65 38.5 -105.5t102.5 -40.5t103 40t39 106t-39 106t-103 40t-102.5 -40.5t-38.5 -105.5z" />
<glyph unicode="&#xf7;" d="M335 401q-41 0 -63.5 22t-22.5 57q0 34 22.5 56t63.5 22t63 -22t22 -56q0 -35 -22 -57t-63 -22zM537 212h-406v137h406v-137zM335 3q-41 0 -63.5 22t-22.5 57q0 34 22.5 56t63.5 22t63 -22t22 -56q0 -35 -22 -57t-63 -22z" />
<glyph unicode="&#xf8;" horiz-adv-x="658" d="M617 543l-54 -70q70 -80 70 -193q0 -127 -85 -209t-218 -82q-65 0 -123 22l-53 -69l-111 80l52 68q-67 78 -67 190q0 127 85 209t217 82q65 0 119 -21l57 73zM330 426q-64 0 -102.5 -40.5t-38.5 -105.5q0 -46 20 -81l164 222q-22 5 -43 5zM330 134q64 0 103 40t39 106 q0 49 -23 86l-167 -225q21 -7 48 -7z" />
<glyph unicode="&#xf9;" horiz-adv-x="635" d="M287 795l112 -181h-149l-93 140zM585 560v-289q0 -142 -72 -212t-195 -70q-125 0 -196.5 70t-71.5 212v289h161v-304q0 -122 108 -122t108 122v304h158z" />
<glyph unicode="&#xfa;" horiz-adv-x="635" d="M391 614h-149l112 181l131 -41zM585 560v-289q0 -142 -72 -212t-195 -70q-125 0 -196.5 70t-71.5 212v289h161v-304q0 -122 108 -122t108 122v304h158z" />
<glyph unicode="&#xfb;" horiz-adv-x="635" d="M494 687l-71 -88l-107 75l-106 -75l-72 88l178 130zM585 560v-289q0 -142 -72 -212t-195 -70q-125 0 -196.5 70t-71.5 212v289h161v-304q0 -122 108 -122t108 122v304h158z" />
<glyph unicode="&#xfc;" horiz-adv-x="635" d="M214 622q-31 0 -52 21.5t-21 51.5t21.5 52t53.5 22q29 0 50 -22t21 -52t-21 -51.5t-52 -21.5zM427 622q-31 0 -52 21.5t-21 51.5t21.5 52t51.5 22q31 0 52.5 -22t21.5 -52t-21.5 -51.5t-52.5 -21.5zM585 560v-289q0 -142 -72 -212t-195 -70q-125 0 -196.5 70t-71.5 212 v289h161v-304q0 -122 108 -122t108 122v304h158z" />
<glyph unicode="&#xfd;" horiz-adv-x="591" d="M381 614h-149l112 181l130 -41zM374 0h-159v191l-204 369h181l59 -113q12 -24 25 -50.5t20 -40.5l7 -14h3l7 14q7 13 20 40.5t25 50.5l58 113h164l-206 -369v-191z" />
<glyph unicode="&#xfe;" horiz-adv-x="531" d="M214 465h59q111 0 173.5 -51t62.5 -140q0 -84 -62.5 -133t-173.5 -49h-59v-92h-158v560h158v-95zM214 216h65q69 0 69 55q0 24 -17 39t-52 15h-65v-109z" />
<glyph unicode="&#xff;" horiz-adv-x="591" d="M203 622q-31 0 -52 21.5t-21 51.5t22 52t53 22q30 0 51 -22t21 -52t-21.5 -51.5t-52.5 -21.5zM417 622q-31 0 -52.5 21.5t-21.5 51.5t21.5 52t52.5 22q30 0 51.5 -22t21.5 -52t-21.5 -51.5t-51.5 -21.5zM374 0h-159v191l-204 369h181l59 -113q12 -24 25 -50.5t20 -40.5 l7 -14h3l7 14q7 13 20 40.5t25 50.5l58 113h164l-206 -369v-191z" />
<glyph unicode="&#x152;" horiz-adv-x="1023" d="M980 0h-489q-30 -4 -96 -4q-154 0 -260.5 98.5t-106.5 255.5t106.5 255.5t260.5 98.5q63 0 96 -4h484v-156h-342v-115h260v-148h-260v-125h347v-156zM197 350q0 -96 55 -150.5t146 -54.5q42 0 71 9v394q-27 7 -71 7q-91 0 -146 -54.5t-55 -150.5z" />
<glyph unicode="&#x153;" horiz-adv-x="863" d="M820 0h-409q-27 -3 -83 -3q-130 0 -215 77.5t-85 205.5t84.5 205.5t214.5 77.5q58 0 86 -3h402v-147h-282v-68h193v-124h-193v-74h287v-147zM187 280q0 -64 38 -103t105 -39q19 0 53 4v276q-34 4 -53 4q-67 0 -105 -39t-38 -103z" />
<glyph unicode="&#x178;" horiz-adv-x="713" d="M266 762q-31 0 -52 21.5t-21 51.5t22 52t53 22q30 0 51 -22t21 -52t-21.5 -51.5t-52.5 -21.5zM479 762q-31 0 -52 21.5t-21 51.5t21.5 52t51.5 22q31 0 52.5 -22t21.5 -52t-21.5 -51.5t-52.5 -21.5zM440 276v-276h-168v276l-261 424l194 1l108 -191q10 -17 22.5 -39.5 t18.5 -32.5l6 -11h3l7 11q6 12 17.5 33t22.5 39l112 190h179z" />
<glyph unicode="&#x2c6;" horiz-adv-x="585" d="M471 827l-72 -88l-106 75l-107 -75l-72 88l179 130z" />
<glyph unicode="&#x2dc;" horiz-adv-x="585" d="M438 917l25 -121q-7 -11 -32 -21.5t-54 -10.5t-77 15t-77 15q-46 0 -78 -28l-26 121q8 11 33.5 21.5t53.5 10.5q29 0 76.5 -15t77.5 -15q48 0 78 28z" />
<glyph unicode="&#x2000;" horiz-adv-x="487" />
<glyph unicode="&#x2001;" horiz-adv-x="975" />
<glyph unicode="&#x2002;" horiz-adv-x="487" />
<glyph unicode="&#x2003;" horiz-adv-x="975" />
<glyph unicode="&#x2004;" horiz-adv-x="325" />
<glyph unicode="&#x2005;" horiz-adv-x="243" />
<glyph unicode="&#x2006;" horiz-adv-x="162" />
<glyph unicode="&#x2007;" horiz-adv-x="162" />
<glyph unicode="&#x2008;" horiz-adv-x="121" />
<glyph unicode="&#x2009;" horiz-adv-x="195" />
<glyph unicode="&#x200a;" horiz-adv-x="54" />
<glyph unicode="&#x2010;" horiz-adv-x="571" d="M489 212h-407v137h407v-137z" />
<glyph unicode="&#x2011;" horiz-adv-x="571" d="M489 212h-407v137h407v-137z" />
<glyph unicode="&#x2012;" horiz-adv-x="571" d="M489 212h-407v137h407v-137z" />
<glyph unicode="&#x2013;" d="M586 212h-504v137h504v-137z" />
<glyph unicode="&#x2014;" horiz-adv-x="957" d="M875 212h-793v137h793v-137z" />
<glyph unicode="&#x2018;" horiz-adv-x="283" d="M172 594q26 1 41 -15.5t15 -44.5q0 -30 -23 -50.5t-57 -20.5q-43 0 -69.5 27t-26.5 74q0 48 32 88t87 57l62 -69q-45 -10 -61 -46z" />
<glyph unicode="&#x2019;" horiz-adv-x="283" d="M112 580q-25 -1 -40.5 15.5t-15.5 45.5q0 30 22.5 50.5t57.5 20.5q42 0 69 -27t27 -74q0 -48 -32.5 -88.5t-87.5 -56.5l-61 69q45 10 61 45z" />
<glyph unicode="&#x201a;" horiz-adv-x="283" d="M112 14q-25 -1 -40.5 15.5t-15.5 45.5q0 30 22.5 50.5t57.5 20.5q42 0 69 -27t27 -74q0 -48 -32.5 -88t-87.5 -57l-61 69q45 10 61 45z" />
<glyph unicode="&#x201c;" horiz-adv-x="513" d="M400 594q26 1 41 -15.5t15 -44.5q0 -30 -22.5 -50.5t-57.5 -20.5q-42 0 -68.5 27t-26.5 74q0 48 32 88t87 57l62 -69q-46 -10 -62 -46zM170 594q26 1 41 -15.5t15 -44.5q0 -30 -22.5 -50.5t-57.5 -20.5q-42 0 -68.5 27t-26.5 74q0 48 32 88t87 57l62 -69q-46 -10 -62 -46 z" />
<glyph unicode="&#x201d;" horiz-adv-x="513" d="M112 580q-25 -1 -40.5 15.5t-15.5 45.5q0 30 22.5 50.5t57.5 20.5q42 0 69 -27t27 -74q0 -48 -32.5 -88.5t-87.5 -56.5l-61 69q45 10 61 45zM342 580q-25 -1 -40.5 15.5t-15.5 45.5q0 30 22.5 50.5t57.5 20.5q42 0 69 -27t27 -74q0 -48 -32.5 -88.5t-87.5 -56.5l-61 69 q45 10 61 45z" />
<glyph unicode="&#x201e;" horiz-adv-x="514" d="M112 14q-25 -1 -40.5 15.5t-15.5 45.5q0 30 22.5 50.5t57.5 20.5q42 0 69 -27t27 -74q0 -48 -32.5 -88t-87.5 -57l-61 69q45 10 61 45zM342 14q-25 -1 -40.5 15.5t-15.5 45.5q0 30 22.5 50.5t57.5 20.5q43 0 69.5 -27t26.5 -74q0 -48 -32 -88t-87 -57l-62 69q45 10 61 45 z" />
<glyph unicode="&#x2022;" horiz-adv-x="340" d="M171 177q-51 0 -83 29.5t-32 78.5q0 47 32 76.5t83 29.5q50 0 81.5 -29.5t31.5 -76.5q0 -48 -31.5 -78t-81.5 -30z" />
<glyph unicode="&#x2026;" horiz-adv-x="775" d="M127 -11q-34 0 -52.5 19t-18.5 47t18.5 46t52.5 18q33 0 51.5 -18t18.5 -46t-18.5 -47t-51.5 -19zM382 -11q-34 0 -52.5 19t-18.5 47t18.5 46t52.5 18t52 -18t18 -46q0 -29 -18 -47.5t-52 -18.5zM648 -11q-34 0 -52.5 19t-18.5 47t18.5 46t52.5 18q33 0 51.5 -18 t18.5 -46q0 -29 -18 -47.5t-52 -18.5z" />
<glyph unicode="&#x202f;" horiz-adv-x="195" />
<glyph unicode="&#x2039;" horiz-adv-x="447" d="M296 515l90 -90l-150 -142v-4l151 -141l-92 -92l-235 235z" />
<glyph unicode="&#x203a;" horiz-adv-x="447" d="M152 46l-92 92l150 141v4l-149 142l90 90l236 -234z" />
<glyph unicode="&#x205f;" horiz-adv-x="243" />
<glyph unicode="&#x20ac;" horiz-adv-x="588" d="M315 127q68 0 89 56l157 -41q-21 -62 -79 -107.5t-163 -45.5q-202 0 -247 187h-44v85h33l-1 26v12h-31v85h40q39 187 248 187q206 0 245 -169l-156 -42q-9 37 -29.5 56t-61.5 19q-63 0 -82 -51h98v-85h-111v-12v-26h111v-85h-95q20 -49 79 -49z" />
<glyph unicode="&#x2122;" horiz-adv-x="819" d="M763 375h-97v93v95h-1l-5 -9q-5 -10 -14.5 -28t-16.5 -32l-25 -47h-45l-25 47q-8 13 -19.5 33t-16.5 29l-6 10h-1l1 -98v-93h-94v325h109l45 -79q31 -55 32 -56h1l28 56l39 79h111v-325zM339 700v-93h-103v-232h-101v232h-104v93h308z" />
<glyph unicode="&#x25fc;" horiz-adv-x="560" d="M0 560h560v-560h-560v560z" />
</font>
</defs>
</svg>
