<?xml version="1.0" standalone="no"?>
<!DOCTYPE svg PUBLIC "-//W3C//DTD SVG 1.1//EN" "http://www.w3.org/Graphics/SVG/1.1/DTD/svg11.dtd" >
<svg xmlns="http://www.w3.org/2000/svg">
<metadata></metadata>
<defs>
<font id="novecento_sans_widemedium" horiz-adv-x="244" >
<font-face units-per-em="1000" ascent="821" descent="-179" />
<missing-glyph horiz-adv-x="250" />
<glyph horiz-adv-x="1000" />
<glyph horiz-adv-x="1000" />
<glyph unicode="&#xd;" horiz-adv-x="1000" />
<glyph unicode=" "  horiz-adv-x="250" />
<glyph unicode="&#x09;" horiz-adv-x="250" />
<glyph unicode="&#xa0;" horiz-adv-x="250" />
<glyph unicode="!" horiz-adv-x="290" d="M200 700v-526h-110v526h110zM145 -9q-30 0 -47 17t-17 43t17 42.5t47 16.5q31 0 48 -16.5t17 -42.5q0 -27 -17 -43.5t-48 -16.5z" />
<glyph unicode="&#x22;" horiz-adv-x="374" d="M153 700l-6 -237h-91l-6 237h103zM323 700l-6 -237h-92l-6 237h104z" />
<glyph unicode="#" horiz-adv-x="663" d="M467 191h86l-27 -96h-85l-26 -95h-91l25 95h-137l-25 -95h-91l25 95h-86l27 96h86l47 179h-85l27 96h84l26 94h91l-25 -94h136l26 94h91l-25 -94h87l-27 -96h-86zM287 370l-48 -179h136l48 179h-136z" />
<glyph unicode="$" horiz-adv-x="483" d="M451 155q0 -70 -43.5 -112.5t-118.5 -51.5v-81h-86v81q-148 20 -171 149l96 25q6 -42 37 -68.5t84 -26.5q45 0 72 20.5t27 59.5q0 16 -4 28.5t-14 21.5t-18 15.5t-26 12.5t-28 9t-33 8.5t-32 7.5q-32 8 -54 17t-46.5 26.5t-37.5 46t-13 67.5q0 67 40 108t112 50v82h87 v-82q135 -15 164 -135l-91 -24q-18 81 -114 81q-49 0 -74 -20.5t-25 -54.5q0 -40 29.5 -57.5t98.5 -33.5q39 -9 62.5 -17t55.5 -26.5t48 -50t16 -75.5z" />
<glyph unicode="%" horiz-adv-x="723" d="M167 221q-133 0 -133 175t133 175q132 0 132 -175t-132 -175zM490 560l-188 -560h-70l188 560h70zM167 294q31 0 46 22.5t15 79.5q0 56 -15 79t-46 23t-46 -23t-15 -79q0 -57 15 -79.5t46 -22.5zM557 -6q-133 0 -133 174q0 175 133 175q132 0 132 -175q0 -174 -132 -174z M557 66q31 0 46 23t15 79q0 57 -15 80t-46 23t-46 -23t-15 -80q0 -56 15 -79t46 -23z" />
<glyph unicode="&#x26;" horiz-adv-x="616" d="M503 240v-59q0 -94 -59.5 -143t-171.5 -49q-110 0 -166.5 44.5t-56.5 118.5q0 54 29.5 90.5t74.5 45.5v2q-40 9 -69.5 42t-29.5 90q0 74 53 111.5t150 37.5q193 0 241 -146l-96 -26q-28 85 -136 85q-105 0 -105 -72q0 -35 27.5 -57t83.5 -22h317v-93h-86zM398 240h-130 q-113 0 -113 -82q0 -84 118 -84q64 0 94.5 26t30.5 82v58z" />
<glyph unicode="'" horiz-adv-x="205" d="M153 700l-6 -237h-91l-6 237h103z" />
<glyph unicode="(" horiz-adv-x="375" d="M326 795l30 -101q-101 -33 -148.5 -133.5t-47.5 -271.5q0 -340 196 -405l-30 -101q-273 95 -273 506t273 506z" />
<glyph unicode=")" horiz-adv-x="375" d="M49 -216l-30 101q196 65 196 404q0 342 -196 406l30 100q273 -93 273 -506q0 -410 -273 -505z" />
<glyph unicode="*" horiz-adv-x="481" d="M298 514l70 -97l-59 -43l-69 99l-68 -99l-60 42l70 98l-112 34l22 69l112 -36v119h72v-119l113 36l22 -69z" />
<glyph unicode="+" horiz-adv-x="668" d="M528 240h-145v-158h-97l-1 158h-146v92h146v157h97l1 -157h145v-92z" />
<glyph unicode="," d="M109 5q-22 -2 -35.5 11t-13.5 36q0 24 17 40t44 16q32 0 51.5 -20.5t19.5 -56.5q0 -41 -27 -79t-73 -53l-42 45q21 6 37 24t22 37z" />
<glyph unicode="-" horiz-adv-x="578" d="M483 240h-389v92h389v-92z" />
<glyph unicode="." d="M122 -9q-31 0 -48 17t-17 43t17 42.5t48 16.5q30 0 47 -16.5t17 -42.5q0 -27 -17 -43.5t-47 -16.5z" />
<glyph unicode="/" horiz-adv-x="505" d="M485 700l-350 -700h-115l352 700h113z" />
<glyph unicode="0" horiz-adv-x="527" d="M264 571q107 0 167 -74.5t60 -216.5t-60 -216.5t-167 -74.5q-108 0 -168 74.5t-60 216.5t60 216.5t168 74.5zM264 475q-64 0 -93.5 -47.5t-29.5 -147.5t30 -147.5t93 -47.5t92.5 48t29.5 147q0 100 -29.5 147.5t-92.5 47.5z" />
<glyph unicode="1" horiz-adv-x="360" d="M180 0v336q0 19 1 45t2 42l1 16h-2l-7 -8q-7 -8 -16.5 -18.5t-15.5 -15.5l-47 -47l-61 75l152 135h98v-560h-105z" />
<glyph unicode="2" horiz-adv-x="497" d="M47 0v114l199 147q55 42 78 71t23 62q0 38 -26.5 63t-77.5 25q-47 0 -73 -23.5t-30 -60.5l-99 27q14 76 70.5 111t138.5 35q98 0 151 -46t53 -127q0 -64 -34.5 -106t-111.5 -95l-141 -102l1 -3l28 1q29 1 56 1h204v-94h-409z" />
<glyph unicode="3" horiz-adv-x="499" d="M347 294v-4q50 -5 83 -40t33 -94q0 -75 -56 -121t-151 -46q-88 0 -146.5 41.5t-73.5 117.5l92 26q20 -95 125 -95q52 0 80 25.5t28 65.5t-29 61t-79 21h-59v76h55q51 0 78.5 20.5t27.5 58.5q0 37 -27 57.5t-76 20.5q-98 0 -110 -86l-95 26q29 146 215 146q96 0 145.5 -39 t49.5 -107q0 -58 -33 -91.5t-77 -39.5z" />
<glyph unicode="4" horiz-adv-x="537" d="M415 0h-105v137h-277v93l224 330h158v-334h81v-89h-81v-137zM310 346v132h-4l-175 -250l2 -2h84h93v120z" />
<glyph unicode="5" horiz-adv-x="506" d="M156 328l3 -2q15 15 45 27t67 12q89 0 141.5 -51t52.5 -133q0 -87 -57.5 -139.5t-153.5 -52.5q-84 0 -141 40.5t-72 107.5l91 23q9 -39 40.5 -61.5t78.5 -22.5q51 0 82.5 28.5t31.5 76.5q0 49 -31.5 77t-85.5 28q-78 0 -104 -52l-86 23l53 303h318v-98h-248l-12 -72 q-8 -46 -13 -62z" />
<glyph unicode="6" horiz-adv-x="505" d="M177 324l3 -3q36 39 103 39q80 0 133.5 -49.5t53.5 -128.5q0 -86 -60 -139.5t-159 -53.5q-97 0 -157.5 53t-60.5 148t86 206l129 164h112zM253 78q53 0 85 29t33 78q0 48 -31.5 76t-86.5 28q-54 0 -85.5 -28t-31.5 -76q0 -49 32 -78t85 -29z" />
<glyph unicode="7" horiz-adv-x="484" d="M462 483l-273 -483h-108l202 358q13 23 28.5 49t24.5 39l8 14l-2 3l-74 -1h-238v98h432v-77z" />
<glyph unicode="8" horiz-adv-x="509" d="M36 153q0 60 36.5 96t87.5 45v3q-32 5 -65.5 37.5t-33.5 87.5q0 64 52.5 106.5t140.5 42.5t140.5 -42.5t52.5 -105.5q0 -55 -33.5 -88t-64.5 -38v-3q50 -9 87 -44.5t37 -96.5q0 -72 -57.5 -118.5t-159.5 -46.5t-161 45.5t-59 119.5zM152 417q0 -38 28.5 -59t73.5 -21 q47 1 74.5 22.5t27.5 57.5q0 37 -28 58.5t-74 21.5q-47 0 -74.5 -22t-27.5 -58zM136 159q0 -43 32.5 -67t85.5 -24q54 0 86 24t32 67t-32 66t-86 23t-86 -23.5t-32 -65.5z" />
<glyph unicode="9" horiz-adv-x="512" d="M333 230l-3 3q-35 -38 -104 -38q-84 0 -136.5 51.5t-52.5 129.5q0 86 62 140.5t158 54.5q94 0 157 -53.5t63 -148.5q0 -67 -28.5 -120t-84.5 -117l-116 -132h-117zM255 481q-52 0 -85.5 -27.5t-33.5 -80.5t33 -79t86 -26q54 0 86.5 26.5t32.5 79.5t-33 80t-86 27z" />
<glyph unicode=":" d="M122 332q-31 0 -48 17t-17 43t17 42.5t48 16.5q30 0 47 -16.5t17 -42.5t-17 -43t-47 -17zM122 -9q-31 0 -48 17t-17 43t17 42.5t48 16.5q30 0 47 -16.5t17 -42.5q0 -27 -17 -43.5t-47 -16.5z" />
<glyph unicode=";" d="M122 332q-31 0 -48 17t-17 43t17 42.5t48 16.5q30 0 47 -16.5t17 -42.5t-17 -43t-47 -17zM109 6q-22 -2 -35.5 11t-13.5 36q0 24 17 39.5t44 15.5q32 0 51.5 -20.5t19.5 -56.5q0 -41 -27 -79t-73 -53l-42 45q21 7 37 25t22 37z" />
<glyph unicode="&#x3c;" horiz-adv-x="668" d="M544 38l-451 210v76l451 210v-96l-329 -151v-3l329 -150v-96z" />
<glyph unicode="=" horiz-adv-x="668" d="M528 342h-389v92h389v-92zM528 142h-389v92h389v-92z" />
<glyph unicode="&#x3e;" horiz-adv-x="668" d="M453 284v3l-329 151v96l451 -210v-76l-451 -210v96z" />
<glyph unicode="?" horiz-adv-x="568" d="M219 174v175q114 39 158 73.5t44 79.5q0 44 -31 75.5t-100 31.5q-65 0 -100 -27.5t-51 -80.5l-104 28q22 87 90 136t170 49q114 0 176 -57.5t62 -140.5q0 -44 -17 -80.5t-48.5 -62.5t-63.5 -43.5t-73 -32.5v-123h-112zM274 -9q-31 0 -48 17t-17 43t17 42.5t48 16.5 t48 -16.5t17 -42.5t-17 -43t-48 -17z" />
<glyph unicode="@" horiz-adv-x="790" d="M568 427v-196q0 -47 8.5 -68t36.5 -21q32 0 48 34.5t16 93.5q0 131 -75.5 210.5t-204.5 79.5t-206.5 -82t-77.5 -216q0 -149 73 -222.5t189 -73.5q21 0 41 2t36 5t29.5 7t25 9.5t20 9.5t16 10t11.5 9t8.5 7.5t5.5 4.5l61 -47q-35 -35 -104 -62t-147 -27 q-154 0 -248.5 94.5t-94.5 275.5q0 159 101.5 263.5t259.5 104.5q162 0 260.5 -103t98.5 -261q0 -92 -39.5 -149.5t-116.5 -57.5q-41 0 -73 20.5t-42 48.5h-2q-13 -30 -45 -49.5t-74 -19.5q-70 0 -118 48.5t-48 138.5t44.5 140.5t116.5 50.5q65 0 103 -49h2v37h105zM381 149 q38 0 59 26t23 67v16q0 42 -22 68t-60 26q-39 0 -60 -28t-21 -75t22 -73.5t59 -26.5z" />
<glyph unicode="A" horiz-adv-x="740" d="M537 163h-335l-66 -163h-116l289 700h123l288 -700h-118zM497 263l-68 169q-57 142 -58 143h-3q-2 -2 -59 -143l-67 -169h255z" />
<glyph unicode="B" horiz-adv-x="626" d="M446 377v-4q59 -12 103.5 -56t44.5 -119q0 -89 -63 -143.5t-180 -54.5h-281v700h268q94 0 152.5 -50.5t58.5 -125.5q0 -60 -31.5 -98t-71.5 -49zM180 408h143q51 0 83 26.5t32 73.5q0 45 -32.5 72t-88.5 27h-137v-199zM180 93h163q63 0 99 29.5t36 83.5q0 55 -38.5 86.5 t-97.5 31.5h-162v-231z" />
<glyph unicode="C" horiz-adv-x="762" d="M617 229l108 -29q-40 -99 -128.5 -156t-201.5 -57q-156 0 -258 101t-102 264q0 161 102 261.5t259 100.5q115 0 199.5 -55t121.5 -140l-109 -29q-28 48 -81 84t-135 36q-110 0 -178 -70.5t-68 -188.5t69 -189t175 -71q78 0 137.5 37.5t89.5 100.5z" />
<glyph unicode="D" horiz-adv-x="736" d="M70 700h261q162 0 266 -97t104 -256q0 -158 -103 -252.5t-263 -94.5h-265v700zM180 103h149q112 0 186.5 62t74.5 182t-75.5 185t-189.5 65h-145v-494z" />
<glyph unicode="E" horiz-adv-x="604" d="M70 0v700h484v-103h-374v-183h287v-103h-287v-208h377v-103h-487z" />
<glyph unicode="F" horiz-adv-x="586" d="M549 597h-369v-200h291v-103h-291v-294h-110v700h479v-103z" />
<glyph unicode="G" horiz-adv-x="787" d="M732 0h-99q0 30 0.5 48.5t0.5 26v9.5h-2q-35 -37 -96.5 -67t-141.5 -30q-152 0 -255.5 101.5t-103.5 262.5q0 162 102.5 262.5t259.5 100.5q115 0 200 -55t120 -140l-108 -29q-25 46 -77.5 83t-138.5 37q-110 0 -178.5 -70.5t-68.5 -188.5t71.5 -189t184.5 -71 q82 0 142.5 34t84.5 74v78h-197v102h300v-379z" />
<glyph unicode="H" horiz-adv-x="707" d="M527 0v309h-347v-309h-110v700h110v-285h347v285h110v-700h-110z" />
<glyph unicode="I" horiz-adv-x="250" d="M70 0v700h110v-700h-110z" />
<glyph unicode="J" horiz-adv-x="498" d="M433 700v-410q0 -146 -64.5 -224.5t-188.5 -78.5q-114 0 -180 76l63 86q45 -58 117 -58q77 0 109.5 50.5t32.5 156.5v402h111z" />
<glyph unicode="K" horiz-adv-x="668" d="M524 0l-234 340l-110 -117v-223h-110v700h110v-210v-137h2l101 111l215 236h132l-258 -281l281 -419h-129z" />
<glyph unicode="L" horiz-adv-x="566" d="M70 0v700h110v-597h351v-103h-461z" />
<glyph unicode="M" horiz-adv-x="807" d="M627 0v267v42v41t0.5 38t0.5 35.5v31t0.5 26t0.5 20v13.5v4h-2l-9 -18q-9 -17 -30 -55.5t-44 -79.5l-108 -192h-64l-108 189q-24 43 -45 82t-30 56l-9 18h-2v-4v-13.5t0.5 -20t0.5 -26v-31t0.5 -35.5t0.5 -38v-41v-42v-267h-110v700h117l217 -388h3l217 388h113v-700 h-110z" />
<glyph unicode="N" horiz-adv-x="735" d="M553 0l-373 519h-2v-5q0 -5 0.5 -14t0.5 -21v-27.5t0.5 -32t0.5 -35.5v-37v-347h-110v700h112l372 -512h3v5q0 5 -0.5 14t-0.5 21v27t-0.5 30t-0.5 33v34v348h110v-700h-112z" />
<glyph unicode="O" horiz-adv-x="799" d="M35 350q0 161 103.5 262.5t260.5 101.5q158 0 262 -101.5t104 -262.5q0 -160 -104 -261.5t-262 -101.5q-157 0 -260.5 101.5t-103.5 261.5zM146 350q0 -117 72 -188t181 -71q110 0 182.5 70.5t72.5 188.5t-72 189t-183 71q-110 0 -181.5 -71t-71.5 -189z" />
<glyph unicode="P" horiz-adv-x="589" d="M70 700h228q126 0 196 -58.5t70 -167.5q0 -106 -70.5 -165.5t-195.5 -59.5h-118v-249h-110v700zM180 346h121q76 0 114.5 33t38.5 94q0 126 -153 126h-121v-253z" />
<glyph unicode="Q" horiz-adv-x="799" d="M765 350q0 -145 -87 -243t-223 -116v-128h-112v128q-136 18 -222 116t-86 243q0 161 103.5 262.5t260.5 101.5q158 0 262 -101.5t104 -262.5zM399 91q110 0 182.5 71t72.5 188q0 118 -72.5 189t-182.5 71t-181.5 -71t-71.5 -189q0 -117 72 -188t181 -71z" />
<glyph unicode="R" horiz-adv-x="616" d="M455 0l-150 261q-13 -1 -54 -1h-71v-260h-110v700h231q126 0 197 -59.5t71 -164.5q0 -77 -39.5 -126.5t-111.5 -68.5l169 -281h-132zM180 350h130q146 0 146 121q0 63 -39 95.5t-111 32.5h-126v-249z" />
<glyph unicode="S" horiz-adv-x="604" d="M32 181l106 29q7 -62 55 -93.5t123 -31.5q68 0 105.5 27t37.5 79q0 24 -9 42t-20.5 28.5t-34.5 19.5t-38.5 12.5t-45.5 9.5t-43 9q-35 8 -60 16t-56.5 24t-51.5 36t-34 53t-14 74q0 95 66 147t180 52q216 0 266 -177l-105 -28q-30 107 -162 107q-66 0 -99.5 -25.5 t-33.5 -71.5q0 -20 6 -35.5t19.5 -27t26.5 -19.5t38 -15t42 -11t49 -10q37 -7 64 -14.5t60 -23.5t53.5 -37t34.5 -56t14 -79q0 -100 -66.5 -152t-188.5 -52q-49 0 -91.5 9t-83.5 29.5t-70 60t-39 95.5z" />
<glyph unicode="T" horiz-adv-x="644" d="M609 597h-232v-597h-110v597h-232v103h574v-103z" />
<glyph unicode="U" horiz-adv-x="701" d="M638 700v-401q0 -151 -75.5 -231.5t-212.5 -80.5t-212.5 80.5t-75.5 231.5v401h112v-400q0 -106 43.5 -157.5t133.5 -51.5q91 0 134.5 51.5t43.5 157.5v400h109z" />
<glyph unicode="V" horiz-adv-x="703" d="M419 0h-135l-269 700h124l132 -356q23 -61 43.5 -117.5t29.5 -80.5t9 -25h2q0 1 9 24.5t29.5 79.5t42.5 115l133 360h119z" />
<glyph unicode="W" horiz-adv-x="1004" d="M650 0l-95 307q-14 43 -26.5 88t-18.5 67l-7 23h-2l-7 -23q-6 -22 -19 -69t-27 -93l-89 -300h-123l-219 700h123l95 -322q14 -45 32 -104.5t27.5 -90t9.5 -31.5h2q3 6 58 196l78 267h131l78 -268q56 -192 57 -195h2q1 3 67 220l100 328h110l-219 -700h-118z" />
<glyph unicode="X" horiz-adv-x="705" d="M547 0l-113 158q-22 30 -44.5 61.5t-30.5 42.5l-8 11h-1q-1 0 -85 -117l-111 -156h-134l267 363l-249 337h135l109 -151q75 -105 76 -105h1q2 0 73 106l105 150h132l-246 -338l262 -362h-138z" />
<glyph unicode="Y" horiz-adv-x="676" d="M393 295v-295h-111v295l-267 405l128 1l140 -218q13 -21 28 -43.5t22 -33.5l7 -11h2l7 11l21 33t28 43l144 218h119z" />
<glyph unicode="Z" horiz-adv-x="658" d="M618 594l-355 -403q-24 -27 -44.5 -48.5t-28.5 -30.5l-8 -8l1 -3h5q4 0 12.5 0.5t19.5 1t26 0.5h30h342v-103h-578v102l367 414q20 23 39 43t27 28l8 8l-2 3h-5h-12.5t-19 -0.5t-24.5 -0.5h-28h-340v103h568v-106z" />
<glyph unicode="[" horiz-adv-x="387" d="M348 -111v-100h-255v1010h255v-99h-148v-811h148z" />
<glyph unicode="\" horiz-adv-x="505" d="M485 0h-115l-350 700h113z" />
<glyph unicode="]" horiz-adv-x="387" d="M39 702v100h255v-1010h-255v99h148v811h-148z" />
<glyph unicode="^" horiz-adv-x="668" d="M333 612l-188 -247l-81 53l222 286h95l223 -286l-82 -53z" />
<glyph unicode="_" horiz-adv-x="732" d="M662 -87h-592v87h592v-87z" />
<glyph unicode="`" horiz-adv-x="551" d="M266 922l107 -168h-101l-94 139z" />
<glyph unicode="a" horiz-adv-x="605" d="M427 132h-251l-49 -132h-107l219 560h127l219 -560h-109zM394 223l-40 107q-16 42 -28.5 78t-17.5 50l-5 14h-3l-54 -148l-37 -101h185z" />
<glyph unicode="b" horiz-adv-x="547" d="M396 300v-4q49 -11 83.5 -45.5t34.5 -91.5q0 -69 -52.5 -114t-148.5 -45h-243v560h237q75 0 124 -42t49 -101q0 -49 -24.5 -77.5t-59.5 -39.5zM175 330h112q37 0 62.5 19t25.5 53q0 31 -23 50.5t-64 19.5h-113v-142zM175 88h133q45 0 71 21t26 57q0 38 -27.5 60t-71.5 22 h-131v-160z" />
<glyph unicode="c" horiz-adv-x="639" d="M501 179l100 -27q-36 -75 -105 -119t-162 -44q-130 0 -214.5 82t-84.5 208t84.5 209t213.5 83q90 0 161 -42.5t105 -122.5l-100 -27q-11 16 -18.5 26t-28.5 29.5t-51 30t-67 10.5q-85 0 -139 -54.5t-54 -140.5q0 -87 54 -141t138 -54q114 0 168 94z" />
<glyph unicode="d" horiz-adv-x="621" d="M70 560h205q138 0 224.5 -76t86.5 -206t-86 -204t-222 -74h-208v560zM175 98h102q94 0 148.5 45t54.5 135t-55 137t-151 47h-99v-364z" />
<glyph unicode="e" horiz-adv-x="531" d="M70 0v560h409v-98h-304v-128h229v-93h-229v-143h309v-98h-414z" />
<glyph unicode="f" horiz-adv-x="501" d="M464 462h-289v-154h213v-98h-213v-210h-105v560h394v-98z" />
<glyph unicode="g" horiz-adv-x="671" d="M616 0h-94v41v23l1 6h-2q-27 -31 -76.5 -56t-116.5 -25q-125 0 -209 82t-84 209q0 126 84 208.5t214 82.5q88 0 160.5 -41.5t106.5 -123.5l-96 -26q-21 41 -65.5 68.5t-104.5 27.5q-86 0 -139.5 -53t-53.5 -143q0 -88 56 -142t150 -54q56 0 105.5 22.5t68.5 48.5v58h-161 v93h256v-306z" />
<glyph unicode="h" horiz-adv-x="618" d="M548 0h-105v236h-268v-236h-105v560h105v-226h268v226h105v-560z" />
<glyph unicode="i" d="M70 0v560h105v-560h-105z" />
<glyph unicode="j" horiz-adv-x="435" d="M371 560v-323q0 -120 -55.5 -184t-161.5 -64q-99 0 -154 59l57 76q36 -39 96 -39q62 0 87.5 38t25.5 119v318h105z" />
<glyph unicode="k" horiz-adv-x="591" d="M455 0l-183 268l-97 -102v-166h-105v560h105v-146l-1 -124h3q5 5 67 71l185 199h131l-211 -222l227 -338h-121z" />
<glyph unicode="l" horiz-adv-x="486" d="M70 0v560h105v-462h276v-98h-381z" />
<glyph unicode="m" horiz-adv-x="709" d="M534 0v267l1 139h-3l-144 -271h-69l-146 277h-2v-10q0 -9 0.5 -24.5t0.5 -33.5v-37.5v-33.5v-273h-102v560h128l103 -188q16 -28 30 -55.5t21 -40.5l6 -12h3q1 0 7.5 12t22 41.5t29.5 55.5l101 187h118v-560h-105z" />
<glyph unicode="n" horiz-adv-x="639" d="M569 0h-108l-285 399h-3v-4q0 -4 0.5 -10.5t0.5 -15v-20t0.5 -23.5t0.5 -26.5v-27.5v-272h-105v560h108l285 -391h2v3v10t-0.5 14t-0.5 18.5v21v23.5v25v276h105v-560z" />
<glyph unicode="o" horiz-adv-x="663" d="M35 280q0 126 84.5 208.5t211.5 82.5q128 0 213 -82.5t85 -208.5q0 -127 -85 -209t-213 -82q-127 0 -211.5 82t-84.5 209zM141 280q0 -86 53.5 -140.5t136.5 -54.5t137 54.5t54 140.5t-54 140.5t-137 54.5t-136.5 -54.5t-53.5 -140.5z" />
<glyph unicode="p" horiz-adv-x="517" d="M70 560h198q106 0 165.5 -50t59.5 -134q0 -85 -59.5 -133.5t-165.5 -48.5h-93v-194h-105v560zM175 281h97q56 0 85 25t29 68q0 42 -29 67.5t-85 25.5h-97v-186z" />
<glyph unicode="q" horiz-adv-x="661" d="M629 280q0 -113 -69 -192t-177 -96v-108h-105v109q-107 17 -175 96t-68 191q0 126 84.5 208.5t211.5 82.5q128 0 213 -82.5t85 -208.5zM331 85q83 0 137 54.5t54 140.5t-54 140.5t-137 54.5t-136.5 -54.5t-53.5 -140.5t53.5 -140.5t136.5 -54.5z" />
<glyph unicode="r" horiz-adv-x="550" d="M407 0l-125 207q-18 -1 -58 -1h-49v-206h-105v560h201q107 0 166.5 -47t59.5 -130q0 -62 -31.5 -101.5t-83.5 -54.5l138 -227h-113zM175 288h101q114 0 114 89q0 88 -114 88h-101v-177z" />
<glyph unicode="s" horiz-adv-x="513" d="M32 140l96 25q6 -41 41.5 -67.5t95.5 -26.5q51 0 80 20.5t29 61.5q0 16 -3.5 28t-14.5 21.5t-19 15t-29 11.5t-31 8.5t-38.5 8.5t-39.5 8q-32 7 -55 16t-48 25.5t-38.5 45t-13.5 67.5q0 80 55 121.5t154 41.5q185 0 223 -138l-93 -24q-21 79 -124 79q-51 0 -79.5 -19.5 t-28.5 -55.5q0 -17 7.5 -30t17.5 -21t31.5 -15t38.5 -11t50 -10q28 -5 47.5 -10.5t48 -18.5t46 -30t30.5 -46t13 -66q0 -84 -58.5 -125t-157.5 -41q-39 0 -73 6.5t-68.5 22t-58.5 47t-33 75.5z" />
<glyph unicode="t" horiz-adv-x="554" d="M519 462h-189v-462h-105v462h-190v98h484v-98z" />
<glyph unicode="u" horiz-adv-x="619" d="M557 560v-309q0 -131 -65 -196.5t-183 -65.5t-182.5 65.5t-64.5 196.5v309h107v-319q0 -156 142 -156t142 156v319h104z" />
<glyph unicode="v" horiz-adv-x="616" d="M370 0h-124l-231 560h116l105 -256q22 -55 40.5 -102.5t25.5 -67.5l8 -20h3l7 20q8 19 26.5 66t40.5 103l103 257h112z" />
<glyph unicode="w" horiz-adv-x="839" d="M537 0l-66 209q-14 45 -26.5 86.5t-18.5 58.5l-5 17h-2l-5 -17q-6 -16 -19.5 -60t-26.5 -86l-66 -208h-108l-177 560h112l75 -241q15 -51 29 -98t19 -65l6 -19h2l6 17q5 18 18 61t25 83l61 199h111l59 -199q13 -43 25 -84t17 -59l5 -18h2l5 19q6 19 19.5 65t30.5 98 l76 241h102l-177 -560h-108z" />
<glyph unicode="x" horiz-adv-x="596" d="M449 0l-87 117q-20 26 -38 50.5t-25 34.5l-7 9h-1q-1 0 -69 -95l-83 -116h-119l210 287l-194 273h125l71 -100l71 -98h1q1 0 73 102l67 96h114l-196 -273l214 -287h-127z" />
<glyph unicode="y" horiz-adv-x="558" d="M331 0h-105v218l-211 342h120l80 -129q16 -27 33.5 -56t25.5 -43l9 -15h2l9 15q9 14 26.5 43t34.5 57l78 128h110l-212 -342v-218z" />
<glyph unicode="z" horiz-adv-x="563" d="M522 460l-244 -260q-33 -35 -59 -60.5t-34 -33.5l-8 -7l1 -2h4q4 0 11.5 0.5t17 0.5h23h27.5h261v-98h-482v100l258 270q28 29 51.5 52.5l30.5 30.5l6 7l-1 2h-76h-260v98h473v-100z" />
<glyph unicode="{" horiz-adv-x="426" d="M245 546v-94q0 -36 -8 -65t-18.5 -45.5t-23.5 -28.5t-21 -16t-14 -5q5 -1 13.5 -5.5t21.5 -16.5t23.5 -29t18.5 -46t8 -63v-93q0 -91 38 -124.5t103 -33.5v-94q-115 0 -178.5 62t-63.5 178v102q0 110 -72 116h-2v95q28 5 41 16q33 28 33 100v102q0 116 63.5 177.5 t178.5 61.5v-95q-66 0 -103.5 -32.5t-37.5 -123.5z" />
<glyph unicode="|" horiz-adv-x="209" d="M60 775h89v-849h-89v849z" />
<glyph unicode="}" horiz-adv-x="426" d="M182 39v93q0 36 8 65t18 45.5t23.5 28.5t21 16t13.5 5q-5 1 -13.5 5.5t-21 17t-23.5 29.5t-18.5 45.5t-7.5 62.5v94q0 91 -38 124t-104 33v95q115 0 178.5 -62t63.5 -179v-101q1 -110 74 -117v-94q-31 -5 -46 -21q-28 -30 -28 -96v-101q0 -117 -63.5 -178.5t-178.5 -61.5 v95q66 0 104 33t38 124z" />
<glyph unicode="~" horiz-adv-x="668" d="M536 352l17 -89q-11 -15 -42 -30.5t-70 -15.5q-38 0 -102.5 21t-103.5 21q-59 0 -102 -45l-19 88q14 17 44.5 33t69.5 16q38 0 102 -21t103 -21q58 0 103 43z" />
<glyph unicode="&#xa1;" horiz-adv-x="290" d="M145 709q31 0 48 -17t17 -43t-17 -42.5t-48 -16.5q-30 0 -47 16.5t-17 42.5q0 27 16.5 43.5t47.5 16.5zM90 0v526h111v-526h-111z" />
<glyph unicode="&#xa2;" horiz-adv-x="581" d="M298 111q102 0 145 89l98 -26q-26 -63 -79 -104t-120 -52v-100h-89v100q-96 15 -157 87t-61 179q0 104 59 174t158 84v104h90v-104q69 -10 123 -49t79 -109l-97 -27q-41 96 -146 96q-76 0 -120 -46t-44 -123q0 -79 44.5 -126t116.5 -47z" />
<glyph unicode="&#xa3;" horiz-adv-x="517" d="M477 98v-98h-441v98q35 6 46.5 24.5t11.5 56.5q0 23 -3 50h-56v83h47q-7 79 -7 99q0 73 49 116.5t137 43.5q183 0 208 -162l-97 -26q-10 52 -35.5 74.5t-71.5 22.5q-88 0 -88 -95q0 -19 6 -73h186v-83h-176q4 -27 4 -50q0 -63 -32 -80l1 -3h8q9 0 23 0.5t32 1t42.5 0.5 h48.5h157z" />
<glyph unicode="&#xa4;" horiz-adv-x="650" d="M607 509l-70 -70q55 -71 55 -159q0 -84 -52 -156l70 -71l-55 -56l-71 71q-71 -55 -160 -55q-88 0 -158 54l-71 -70l-56 56l71 71q-52 72 -52 156q0 88 55 159l-70 70l55 56l71 -70q69 51 155 51q87 0 157 -51l70 70zM325 448q-70 0 -119 -48.5t-49 -119.5 q0 -73 48.5 -120.5t119.5 -47.5t119 47.5t48 120.5q0 71 -48 119.5t-119 48.5z" />
<glyph unicode="&#xa5;" horiz-adv-x="513" d="M396 382h65v-79h-107l-25 -47h132v-79h-153v-177h-105v177h-150v79h130l-25 47h-105v79h63l-96 178h116l83 -170l9 -18l9.5 -19l8.5 -17t7 -13l3 -5h3l3 5q3 5 7 13l8.5 17l9.5 19l9 18l84 170h113z" />
<glyph unicode="&#xa6;" horiz-adv-x="209" d="M149 490h-89v285h89v-285zM149 -74h-89v285h89v-285z" />
<glyph unicode="&#xa7;" horiz-adv-x="668" d="M500 254q82 -36 82 -118q0 -75 -61.5 -112t-172.5 -37q-48 0 -89.5 6.5t-80 22t-64 43.5t-32.5 68l103 28q9 -89 154 -89q130 0 130 75q0 36 -34.5 50t-134.5 31q-7 1 -11.5 2t-11.5 2t-13 2q-35 6 -62 14t-55 23t-43.5 39t-15.5 56q0 79 87 111q-77 34 -77 109 q0 69 60.5 101.5t158.5 32.5q213 0 251 -138l-91 -25q-28 88 -159 88q-110 0 -110 -57q0 -34 31 -47t114 -26q19 -3 29 -5q104 -17 153.5 -45.5t49.5 -92.5q0 -82 -85 -112zM189 374q0 -20 11 -34t40.5 -23.5t48.5 -13.5t66 -12q5 -1 8 -1.5t7 -1t8 -1.5l33 -6q72 16 72 69 q0 22 -12 37.5t-35.5 24.5t-48.5 14t-60 10q-15 2 -22 3l-30 5q-86 -16 -86 -70z" />
<glyph unicode="&#xa8;" horiz-adv-x="551" d="M176 771q-23 0 -39 16.5t-16 39.5t16.5 39t39.5 16q22 0 38 -16t16 -39t-16 -39.5t-39 -16.5zM373 771q-23 0 -39 16.5t-16 39.5t16 39t39 16t39.5 -16t16.5 -39t-16.5 -39.5t-39.5 -16.5z" />
<glyph unicode="&#xa9;" horiz-adv-x="797" d="M398 629q153 0 258.5 -102.5t105.5 -261.5t-105.5 -261.5t-258.5 -102.5t-258 102.5t-105 261.5q0 160 105 262t258 102zM398 571q-132 0 -217.5 -85t-85.5 -220q0 -136 85.5 -221.5t217.5 -85.5t218 85.5t86 221.5t-86 220.5t-218 84.5zM500 200l69 -23 q-22 -46 -68.5 -74.5t-107.5 -28.5q-85 0 -139 53.5t-54 136.5q0 84 55 138t140 54q61 0 107.5 -29t64.5 -82l-69 -19q-25 60 -100 60q-55 0 -89 -33t-34 -88q0 -54 33.5 -87t87.5 -33q71 0 104 55z" />
<glyph unicode="&#xaa;" horiz-adv-x="408" d="M104 235h-68l126 325h85l125 -325h-70l-26 70h-146zM150 358h106l-22 58q-8 20 -15.5 40.5t-10.5 30.5l-4 10h-2l-4 -10q-3 -10 -10.5 -30.5t-15.5 -40.5zM373 169v-70h-338v70h338z" />
<glyph unicode="&#xab;" horiz-adv-x="677" d="M296 514l60 -61l-177 -172v-3l178 -171l-62 -62l-235 235zM556 514l60 -61l-177 -172v-3l178 -171l-62 -62l-235 235z" />
<glyph unicode="&#xad;" horiz-adv-x="578" d="M483 240h-389v92h389v-92z" />
<glyph unicode="&#xae;" horiz-adv-x="797" d="M398 629q153 0 258.5 -102.5t105.5 -261.5t-105.5 -261.5t-258.5 -102.5t-258 102.5t-105 261.5q0 160 105 262t258 102zM398 571q-132 0 -217.5 -85t-85.5 -220q0 -136 85.5 -221.5t217.5 -85.5t218 85.5t86 221.5t-86 220.5t-218 84.5zM477 82l-78 140q-11 -1 -33 -1 h-29v-139h-76v369h137q72 0 112 -31.5t40 -86.5q0 -77 -76 -98l87 -153h-84zM337 279h65q70 0 70 52q0 53 -70 53h-65v-105z" />
<glyph unicode="&#xaf;" horiz-adv-x="551" d="M428 769h-305v92h305v-92z" />
<glyph unicode="&#xb0;" horiz-adv-x="274" d="M137 582q-54 0 -88 32.5t-34 86.5q0 53 34 86t88 33t88.5 -33t34.5 -86q0 -54 -34.5 -86.5t-88.5 -32.5zM137 646q25 0 40.5 15t15.5 40t-15.5 40t-40.5 15t-40 -15t-15 -40t15 -40t40 -15z" />
<glyph unicode="&#xb1;" horiz-adv-x="668" d="M528 406v-91h-145v-148h-98v148h-146v91h146v153h98v-153h145zM139 92h389v-91h-389v91z" />
<glyph unicode="&#xb2;" horiz-adv-x="340" d="M31 473v84l153 108q52 36 52 78q0 27 -18 43.5t-51 16.5q-60 0 -74 -58l-62 17q25 108 144 108q63 0 98.5 -31.5t35.5 -88.5q0 -66 -66 -118q-21 -16 -52 -38.5t-52 -37.5t-22 -16l2 -4q30 3 66 3h128v-66h-282z" />
<glyph unicode="&#xb3;" horiz-adv-x="340" d="M236 675v-4q33 -4 56.5 -29t23.5 -64q0 -49 -38.5 -81t-97.5 -32q-67 0 -107 33t-48 84l66 19q2 -33 24 -52.5t58 -19.5q34 0 53 17.5t19 43.5t-20.5 42t-53.5 16h-30v50h27q33 0 53 16t20 41q0 22 -17.5 37.5t-54.5 15.5q-34 0 -51 -15t-23 -48l-61 16q18 109 141 109 q66 0 100.5 -29t34.5 -75q0 -38 -21.5 -63t-52.5 -28z" />
<glyph unicode="&#xb4;" horiz-adv-x="551" d="M278 754h-100l106 168l89 -29z" />
<glyph unicode="&#xb6;" horiz-adv-x="617" d="M437 -140v597h-82v-597h-110v337q-104 0 -157 48.5t-53 135.5q0 85 53 132t157 47h302v-700h-110z" />
<glyph unicode="&#xb7;" d="M122 222q-31 0 -48 17t-17 43t17 42.5t48 16.5q30 0 47 -16.5t17 -42.5t-17 -43t-47 -17z" />
<glyph unicode="&#xb8;" horiz-adv-x="551" d="M392 -83q0 -91 -132 -91q-57 0 -87 14v71q24 -12 71 -12q69 0 69 33q0 38 -116 39v65h77v-28q118 -7 118 -91z" />
<glyph unicode="&#xb9;" horiz-adv-x="340" d="M307 473h-244v66h85v154q0 62 5 82h-4l-4 -5q-4 -4 -10 -11t-12 -12l-36 -36l-47 45l111 106h71v-323h85v-66z" />
<glyph unicode="&#xba;" horiz-adv-x="415" d="M35 398q0 75 50 124t122 49t122.5 -49t50.5 -124q0 -73 -50.5 -122.5t-122.5 -49.5t-122 49t-50 123zM103 398q0 -46 29 -76.5t75 -30.5q47 0 75.5 30.5t28.5 76.5q0 47 -28.5 77.5t-75.5 30.5q-46 0 -75 -30.5t-29 -77.5zM371 98h-326v70h326v-70z" />
<glyph unicode="&#xbb;" horiz-adv-x="677" d="M122 45l-62 62l178 171v3l-177 172l60 61l236 -234zM382 45l-62 62l178 171v3l-177 172l60 61l236 -234z" />
<glyph unicode="&#xbc;" horiz-adv-x="829" d="M307 311h-244v66h85v154q0 62 5 82h-4l-4 -5q-4 -4 -10 -11t-12 -12l-36 -36l-47 45l111 106h71v-323h85v-66zM559 700l-210 -700h-79l209 700h80zM755 1h-71v92h-181v64l148 232h104v-231h60v-65h-60v-92zM684 158v87q0 19 1 38t1.5 31t0.5 13h-4l-11 -17 q-11 -17 -27 -41t-31.5 -48t-27 -41.5t-11.5 -18.5l3 -3h48h58z" />
<glyph unicode="&#xbd;" horiz-adv-x="829" d="M307 311h-244v66h85v154q0 62 5 82h-4l-4 -5q-4 -4 -10 -11t-12 -12l-36 -36l-47 45l111 106h71v-323h85v-66zM559 700l-210 -700h-79l209 700h80zM520 1v83l152 108q53 35 53 79q0 27 -17.5 43t-51.5 16q-61 0 -74 -58l-62 17q25 108 143 108q63 0 99 -31.5t36 -88.5 q0 -66 -66 -117q-20 -16 -51.5 -39t-52.5 -38t-22 -16l1 -4q30 3 67 3h128v-65h-282z" />
<glyph unicode="&#xbe;" horiz-adv-x="829" d="M236 513v-4q33 -4 56.5 -29t23.5 -64q0 -49 -38.5 -81t-97.5 -32q-67 0 -107 33t-48 84l66 19q2 -33 24 -52.5t58 -19.5q34 0 53 17.5t19 43.5t-20.5 42t-53.5 16h-30v50h27q33 0 53 16t20 41q0 22 -17.5 37.5t-54.5 15.5q-34 0 -51 -15t-23 -48l-61 16q18 109 141 109 q66 0 100.5 -29t34.5 -75q0 -38 -21.5 -63t-52.5 -28zM559 700l-210 -700h-79l209 700h80zM755 1h-71v92h-181v64l148 232h104v-231h60v-65h-60v-92zM684 158v87q0 19 1 38t1.5 31t0.5 13h-4l-11 -17q-11 -17 -27 -41t-31.5 -48t-27 -41.5t-11.5 -18.5l3 -3h48h58z" />
<glyph unicode="&#xbf;" horiz-adv-x="568" d="M293 709q31 0 48 -17t17 -43t-17 -42.5t-48 -16.5q-30 0 -47 16.5t-17 42.5q0 27 16.5 43.5t47.5 16.5zM348 526v-175q-114 -39 -157.5 -73.5t-43.5 -79.5q0 -44 30.5 -75.5t100.5 -31.5q64 0 99 27.5t52 80.5l104 -28q-23 -87 -91 -136t-169 -49q-114 0 -176 57.5 t-62 140.5q0 44 17 80.5t48 62.5t63 43.5t74 32.5v123h111z" />
<glyph unicode="&#xc0;" horiz-adv-x="740" d="M327 754l-94 139l88 29l106 -168h-100zM537 163h-335l-66 -163h-116l289 700h123l288 -700h-118zM497 263l-68 169q-57 142 -58 143h-3q-2 -2 -59 -143l-67 -169h255z" />
<glyph unicode="&#xc1;" horiz-adv-x="740" d="M409 754h-101l107 168l88 -29zM537 163h-335l-66 -163h-116l289 700h123l288 -700h-118zM497 263l-68 169q-57 142 -58 143h-3q-2 -2 -59 -143l-67 -169h255z" />
<glyph unicode="&#xc2;" horiz-adv-x="740" d="M262 750l-50 60l155 122l155 -123l-50 -59l-105 84zM537 163h-335l-66 -163h-116l289 700h123l288 -700h-118zM497 263l-68 169q-57 142 -58 143h-3q-2 -2 -59 -143l-67 -169h255z" />
<glyph unicode="&#xc3;" horiz-adv-x="740" d="M294 806q-49 0 -77 -28l-19 79q28 34 86 34q30 0 77.5 -16t78.5 -16q42 0 75 26l19 -80q-9 -11 -31.5 -21.5t-54.5 -10.5q-30 0 -77 16.5t-77 16.5zM537 163h-335l-66 -163h-116l289 700h123l288 -700h-118zM497 263l-68 169q-57 142 -58 143h-3q-2 -2 -59 -143l-67 -169 h255z" />
<glyph unicode="&#xc4;" horiz-adv-x="740" d="M271 771q-23 0 -39 16.5t-16 39.5t16.5 39t39.5 16q22 0 38 -16t16 -39t-16 -39.5t-39 -16.5zM468 771q-23 0 -39 16.5t-16 39.5t16 39t39 16t39.5 -16t16.5 -39t-16.5 -39.5t-39.5 -16.5zM537 163h-335l-66 -163h-116l289 700h123l288 -700h-118zM497 263l-68 169 q-57 142 -58 143h-3q-2 -2 -59 -143l-67 -169h255z" />
<glyph unicode="&#xc5;" horiz-adv-x="740" d="M370 736q-52 0 -83.5 28t-31.5 75q0 48 31.5 76t83.5 28q51 0 82.5 -28.5t31.5 -75.5t-31.5 -75t-82.5 -28zM370 881q-20 0 -32.5 -11.5t-12.5 -30.5t12.5 -30.5t32.5 -11.5t32.5 11.5t12.5 30.5t-12.5 30.5t-32.5 11.5zM537 163h-335l-66 -163h-116l289 700h123 l288 -700h-118zM497 263l-68 169q-57 142 -58 143h-3q-2 -2 -59 -143l-67 -169h255z" />
<glyph unicode="&#xc6;" horiz-adv-x="993" d="M945 98v-98h-484v167h-257l-67 -167h-117l289 700h633v-98h-373v-192h291v-94h-291v-218h376zM461 261v341h-81l-138 -341h219z" />
<glyph unicode="&#xc7;" horiz-adv-x="762" d="M617 229l108 -29q-33 -81 -99 -134.5t-152 -70.5q53 -23 53 -78q0 -91 -133 -91q-56 0 -86 14v71q24 -12 71 -12q69 0 69 33q0 38 -117 39v21q-131 21 -213.5 118t-82.5 242q0 161 102 261.5t259 100.5q115 0 199.5 -55t121.5 -140l-109 -29q-28 48 -81 84t-135 36 q-110 0 -178 -70.5t-68 -188.5t69 -189t175 -71q78 0 137.5 37.5t89.5 100.5z" />
<glyph unicode="&#xc8;" horiz-adv-x="604" d="M266 922l106 -168h-100l-94 139zM70 0v700h484v-103h-374v-183h287v-103h-287v-208h377v-103h-487z" />
<glyph unicode="&#xc9;" horiz-adv-x="604" d="M353 754h-100l107 168l88 -29zM70 0v700h484v-103h-374v-183h287v-103h-287v-208h377v-103h-487z" />
<glyph unicode="&#xca;" horiz-adv-x="604" d="M466 809l-49 -59l-105 84l-106 -84l-49 60l155 122zM70 0v700h484v-103h-374v-183h287v-103h-287v-208h377v-103h-487z" />
<glyph unicode="&#xcb;" horiz-adv-x="604" d="M216 771q-23 0 -39 16.5t-16 39.5t16.5 39t39.5 16q22 0 38 -16t16 -39t-16 -39.5t-39 -16.5zM413 771q-23 0 -39 16.5t-16 39.5t16 39t39 16t39 -16t16 -39t-16 -39.5t-39 -16.5zM70 0v700h484v-103h-374v-183h287v-103h-287v-208h377v-103h-487z" />
<glyph unicode="&#xcc;" horiz-adv-x="250" d="M77 922l106 -168h-100l-95 139zM70 0v700h110v-700h-110z" />
<glyph unicode="&#xcd;" horiz-adv-x="250" d="M164 754h-100l107 168l88 -29zM70 0v700h110v-700h-110z" />
<glyph unicode="&#xce;" horiz-adv-x="250" d="M249 813l-53 -57l-71 70l-71 -70l-52 57l123 119zM70 0v700h110v-700h-110z" />
<glyph unicode="&#xcf;" horiz-adv-x="250" d="M56 771q-22 0 -38 16.5t-16 39.5t16 39t40 16q22 0 38 -16t16 -39t-16.5 -39.5t-39.5 -16.5zM194 771q-23 0 -39 16.5t-16 39.5t16 39t39 16t39 -16t16 -39t-16 -39.5t-39 -16.5zM70 0v700h110v-700h-110z" />
<glyph unicode="&#xd0;" horiz-adv-x="736" d="M70 700h261q162 0 266 -97t104 -256q0 -158 -103 -252.5t-263 -94.5h-265v313h-59v98h59v289zM180 103h149q112 0 186.5 62t74.5 182t-75.5 185t-189.5 65h-145v-186h166v-98h-166v-210z" />
<glyph unicode="&#xd1;" horiz-adv-x="735" d="M515 885l19 -80q-26 -32 -85 -32q-30 0 -78 16.5t-77 16.5q-48 0 -76 -28l-20 79q28 34 87 34q29 0 76.5 -16t78.5 -16q45 0 75 26zM553 0l-373 519h-2v-5q0 -5 0.5 -14t0.5 -21v-27.5t0.5 -32t0.5 -35.5v-37v-347h-110v700h112l372 -512h3v5q0 5 -0.5 14t-0.5 21v27 t-0.5 30t-0.5 33v34v348h110v-700h-112z" />
<glyph unicode="&#xd2;" horiz-adv-x="799" d="M352 922l106 -168h-100l-94 139zM35 350q0 161 103.5 262.5t260.5 101.5q158 0 262 -101.5t104 -262.5q0 -160 -104 -261.5t-262 -101.5q-157 0 -260.5 101.5t-103.5 261.5zM146 350q0 -117 72 -188t181 -71q110 0 182.5 70.5t72.5 188.5t-72 189t-183 71 q-110 0 -181.5 -71t-71.5 -189z" />
<glyph unicode="&#xd3;" horiz-adv-x="799" d="M439 754h-100l107 168l88 -29zM35 350q0 161 103.5 262.5t260.5 101.5q158 0 262 -101.5t104 -262.5q0 -160 -104 -261.5t-262 -101.5q-157 0 -260.5 101.5t-103.5 261.5zM146 350q0 -117 72 -188t181 -71q110 0 182.5 70.5t72.5 188.5t-72 189t-183 71 q-110 0 -181.5 -71t-71.5 -189z" />
<glyph unicode="&#xd4;" horiz-adv-x="799" d="M552 809l-49 -59l-105 84l-106 -84l-49 60l155 122zM35 350q0 161 103.5 262.5t260.5 101.5q158 0 262 -101.5t104 -262.5q0 -160 -104 -261.5t-262 -101.5q-157 0 -260.5 101.5t-103.5 261.5zM146 350q0 -117 72 -188t181 -71q110 0 182.5 70.5t72.5 188.5t-72 189 t-183 71q-110 0 -181.5 -71t-71.5 -189z" />
<glyph unicode="&#xd5;" horiz-adv-x="799" d="M546 885l19 -80q-9 -11 -31.5 -21.5t-54.5 -10.5q-30 0 -77.5 16.5t-76.5 16.5q-49 0 -77 -28l-19 79q28 34 86 34q29 0 76.5 -16t79.5 -16q43 0 75 26zM35 350q0 161 103.5 262.5t260.5 101.5q158 0 262 -101.5t104 -262.5q0 -160 -104 -261.5t-262 -101.5 q-157 0 -260.5 101.5t-103.5 261.5zM146 350q0 -117 72 -188t181 -71q110 0 182.5 70.5t72.5 188.5t-72 189t-183 71q-110 0 -181.5 -71t-71.5 -189z" />
<glyph unicode="&#xd6;" horiz-adv-x="799" d="M302 771q-23 0 -39 16.5t-16 39.5t16.5 39t39.5 16q22 0 38 -16t16 -39t-16 -39.5t-39 -16.5zM499 771q-23 0 -39 16.5t-16 39.5t16 39t39 16t39 -16t16 -39t-16 -39.5t-39 -16.5zM35 350q0 161 103.5 262.5t260.5 101.5q158 0 262 -101.5t104 -262.5q0 -160 -104 -261.5 t-262 -101.5q-157 0 -260.5 101.5t-103.5 261.5zM146 350q0 -117 72 -188t181 -71q110 0 182.5 70.5t72.5 188.5t-72 189t-183 71q-110 0 -181.5 -71t-71.5 -189z" />
<glyph unicode="&#xd7;" horiz-adv-x="668" d="M401 287l120 -120l-67 -67l-120 120l-120 -120l-66 67l120 120l-121 120l67 66l120 -119l120 119l67 -66z" />
<glyph unicode="&#xd8;" horiz-adv-x="799" d="M741 709l-77 -100q101 -103 101 -259q0 -160 -104 -261.5t-262 -101.5q-97 0 -178 42l-78 -101l-84 63l77 100q-101 103 -101 259q0 161 103.5 262.5t260.5 101.5q100 0 181 -43l77 101zM146 350q0 -103 57 -171l311 407q-54 24 -115 24q-110 0 -181.5 -71t-71.5 -189z M399 91q110 0 182.5 70.5t72.5 188.5q0 103 -57 171l-311 -406q51 -24 113 -24z" />
<glyph unicode="&#xd9;" horiz-adv-x="701" d="M304 922l107 -168h-100l-95 139zM638 700v-401q0 -151 -75.5 -231.5t-212.5 -80.5t-212.5 80.5t-75.5 231.5v401h112v-400q0 -106 43.5 -157.5t133.5 -51.5q91 0 134.5 51.5t43.5 157.5v400h109z" />
<glyph unicode="&#xda;" horiz-adv-x="701" d="M392 754h-100l106 168l89 -29zM638 700v-401q0 -151 -75.5 -231.5t-212.5 -80.5t-212.5 80.5t-75.5 231.5v401h112v-400q0 -106 43.5 -157.5t133.5 -51.5q91 0 134.5 51.5t43.5 157.5v400h109z" />
<glyph unicode="&#xdb;" horiz-adv-x="701" d="M505 809l-49 -59l-105 84l-106 -84l-49 60l155 122zM638 700v-401q0 -151 -75.5 -231.5t-212.5 -80.5t-212.5 80.5t-75.5 231.5v401h112v-400q0 -106 43.5 -157.5t133.5 -51.5q91 0 134.5 51.5t43.5 157.5v400h109z" />
<glyph unicode="&#xdc;" horiz-adv-x="701" d="M254 771q-22 0 -38 16.5t-16 39.5t16 39t40 16q22 0 38 -16t16 -39t-16.5 -39.5t-39.5 -16.5zM452 771q-23 0 -39.5 16.5t-16.5 39.5t16.5 39t39.5 16q22 0 38.5 -16t16.5 -39t-16 -39.5t-39 -16.5zM638 700v-401q0 -151 -75.5 -231.5t-212.5 -80.5t-212.5 80.5 t-75.5 231.5v401h112v-400q0 -106 43.5 -157.5t133.5 -51.5q91 0 134.5 51.5t43.5 157.5v400h109z" />
<glyph unicode="&#xdd;" horiz-adv-x="676" d="M387 754h-100l107 168l88 -29zM393 295v-295h-111v295l-267 405l128 1l140 -218q13 -21 28 -43.5t22 -33.5l7 -11h2l7 11l21 33t28 43l144 218h119z" />
<glyph unicode="&#xde;" horiz-adv-x="577" d="M180 566h110q124 0 193 -57.5t69 -160.5q0 -101 -69 -156.5t-193 -55.5h-110v-136h-110v700h110v-134zM180 235h115q72 0 109.5 29t37.5 85q0 55 -37.5 84.5t-109.5 29.5h-115v-228z" />
<glyph unicode="&#xdf;" horiz-adv-x="591" d="M387 346h5q74 0 123 -49t49 -128t-50 -130.5t-137 -51.5q-91 0 -137 46l44 74q37 -33 83 -33q44 0 70.5 26.5t26.5 65.5t-27.5 64.5t-75.5 25.5h-84v88l65 116l-1 2h-39h-127v-462h-105v560h437l-121 -212z" />
<glyph unicode="&#xe0;" horiz-adv-x="605" d="M261 614l-94 139l88 29l107 -168h-101zM427 132h-251l-49 -132h-107l219 560h127l219 -560h-109zM394 223l-40 107q-16 42 -28.5 78t-17.5 50l-5 14h-3l-54 -148l-37 -101h185z" />
<glyph unicode="&#xe1;" horiz-adv-x="605" d="M343 614h-101l107 168l88 -29zM427 132h-251l-49 -132h-107l219 560h127l219 -560h-109zM394 223l-40 107q-16 42 -28.5 78t-17.5 50l-5 14h-3l-54 -148l-37 -101h185z" />
<glyph unicode="&#xe2;" horiz-adv-x="605" d="M233 616l-53 57l124 119l123 -119l-52 -57l-71 70zM427 132h-251l-49 -132h-107l219 560h127l219 -560h-109zM394 223l-40 107q-16 42 -28.5 78t-17.5 50l-5 14h-3l-54 -148l-37 -101h185z" />
<glyph unicode="&#xe3;" horiz-adv-x="605" d="M235 666q-41 0 -67 -28l-20 80q8 11 29 22t48 11t69.5 -16t70.5 -16q38 0 66 26l20 -81q-7 -10 -28.5 -20.5t-47.5 -10.5q-28 0 -71 16.5t-69 16.5zM427 132h-251l-49 -132h-107l219 560h127l219 -560h-109zM394 223l-40 107q-16 42 -28.5 78t-17.5 50l-5 14h-3l-54 -148 l-37 -101h185z" />
<glyph unicode="&#xe4;" horiz-adv-x="605" d="M205 631q-23 0 -39 16.5t-16 39.5t16.5 39t39.5 16q22 0 38 -16t16 -39t-16 -39.5t-39 -16.5zM402 631q-23 0 -39 16.5t-16 39.5t16 39t39 16t39.5 -16t16.5 -39t-16.5 -39.5t-39.5 -16.5zM427 132h-251l-49 -132h-107l219 560h127l219 -560h-109zM394 223l-40 107 q-16 42 -28.5 78t-17.5 50l-5 14h-3l-54 -148l-37 -101h185z" />
<glyph unicode="&#xe5;" horiz-adv-x="605" d="M304 596q-52 0 -83.5 28t-31.5 75q0 48 31.5 76t83.5 28q51 0 82.5 -28.5t31.5 -75.5t-31.5 -75t-82.5 -28zM304 741q-20 0 -32.5 -11.5t-12.5 -30.5t12.5 -30.5t32.5 -11.5t32.5 11.5t12.5 30.5t-12.5 30.5t-32.5 11.5zM427 132h-251l-49 -132h-107l219 560h127 l219 -560h-109zM394 223l-40 107q-16 42 -28.5 78t-17.5 50l-5 14h-3l-54 -148l-37 -101h185z" />
<glyph unicode="&#xe6;" horiz-adv-x="823" d="M776 98v-98h-409v127h-193l-47 -127h-107l221 560h530v-98h-304v-128h229v-93h-229v-143h309zM367 217v249h-68l-92 -249h160z" />
<glyph unicode="&#xe7;" horiz-adv-x="639" d="M501 179l100 -27q-28 -60 -79 -101t-118 -55q59 -21 59 -80q0 -91 -133 -91q-56 0 -86 14v71q24 -12 71 -12q69 0 69 33q0 38 -117 39v25q-104 20 -168 98t-64 186q0 126 84.5 209t213.5 83q90 0 161 -42.5t105 -122.5l-100 -27q-11 16 -18.5 26t-28.5 29.5t-51 30 t-67 10.5q-85 0 -139 -54.5t-54 -140.5q0 -87 54 -141t138 -54q114 0 168 94z" />
<glyph unicode="&#xe8;" horiz-adv-x="531" d="M227 782l107 -168h-100l-95 139zM70 0v560h409v-98h-304v-128h229v-93h-229v-143h309v-98h-414z" />
<glyph unicode="&#xe9;" horiz-adv-x="531" d="M315 614h-100l106 168l89 -29zM70 0v560h409v-98h-304v-128h229v-93h-229v-143h309v-98h-414z" />
<glyph unicode="&#xea;" horiz-adv-x="531" d="M428 669l-49 -59l-105 84l-106 -84l-49 60l155 122zM70 0v560h409v-98h-304v-128h229v-93h-229v-143h309v-98h-414z" />
<glyph unicode="&#xeb;" horiz-adv-x="531" d="M177 631q-22 0 -38 16.5t-16 39.5t16 39t39 16t39 -16t16 -39t-16.5 -39.5t-39.5 -16.5zM375 631q-24 0 -40 16.5t-16 39.5t16 39t40 16q23 0 39 -16t16 -39t-16 -39.5t-39 -16.5zM70 0v560h409v-98h-304v-128h229v-93h-229v-143h309v-98h-414z" />
<glyph unicode="&#xec;" d="M74 782l107 -168h-100l-95 139zM70 0v560h105v-560h-105z" />
<glyph unicode="&#xed;" d="M162 614h-100l107 168l88 -29zM70 0v560h105v-560h-105z" />
<glyph unicode="&#xee;" d="M246 673l-52 -57l-71 70l-71 -70l-52 57l123 119zM70 0v560h105v-560h-105z" />
<glyph unicode="&#xef;" d="M54 631q-22 0 -38 16.5t-16 39.5t16 39t39 16t39 -16t16 -39t-16.5 -39.5t-39.5 -16.5zM192 631q-23 0 -39 16.5t-16 39.5t16 39t39 16t39 -16t16 -39t-16 -39.5t-39 -16.5zM70 0v560h105v-560h-105z" />
<glyph unicode="&#xf0;" horiz-adv-x="621" d="M70 560h205q138 0 224.5 -76t86.5 -206t-86 -204t-222 -74h-208v239h-59v93h59v228zM175 98h102q94 0 148.5 45t54.5 135t-55 137t-151 47h-99v-130h160v-93h-160v-141z" />
<glyph unicode="&#xf1;" horiz-adv-x="639" d="M443 745l20 -81q-8 -10 -29 -20.5t-47 -10.5q-28 0 -71 16.5t-69 16.5q-41 0 -67 -28l-20 80q8 11 29 22t48 11t69.5 -16t70.5 -16q40 0 66 26zM569 0h-108l-285 399h-3v-4q0 -4 0.5 -10.5t0.5 -15v-20t0.5 -23.5t0.5 -26.5v-27.5v-272h-105v560h108l285 -391h2v3v10 t-0.5 14t-0.5 18.5v21v23.5v25v276h105v-560z" />
<glyph unicode="&#xf2;" horiz-adv-x="663" d="M283 782l107 -168h-100l-95 139zM35 280q0 126 84.5 208.5t211.5 82.5q128 0 213 -82.5t85 -208.5q0 -127 -85 -209t-213 -82q-127 0 -211.5 82t-84.5 209zM141 280q0 -86 53.5 -140.5t136.5 -54.5t137 54.5t54 140.5t-54 140.5t-137 54.5t-136.5 -54.5t-53.5 -140.5z " />
<glyph unicode="&#xf3;" horiz-adv-x="663" d="M371 614h-100l106 168l88 -29zM35 280q0 126 84.5 208.5t211.5 82.5q128 0 213 -82.5t85 -208.5q0 -127 -85 -209t-213 -82q-127 0 -211.5 82t-84.5 209zM141 280q0 -86 53.5 -140.5t136.5 -54.5t137 54.5t54 140.5t-54 140.5t-137 54.5t-136.5 -54.5t-53.5 -140.5z" />
<glyph unicode="&#xf4;" horiz-adv-x="663" d="M484 669l-50 -59l-105 84l-105 -84l-49 60l154 122zM35 280q0 126 84.5 208.5t211.5 82.5q128 0 213 -82.5t85 -208.5q0 -127 -85 -209t-213 -82q-127 0 -211.5 82t-84.5 209zM141 280q0 -86 53.5 -140.5t136.5 -54.5t137 54.5t54 140.5t-54 140.5t-137 54.5 t-136.5 -54.5t-53.5 -140.5z" />
<glyph unicode="&#xf5;" horiz-adv-x="663" d="M460 745l19 -81q-7 -10 -28 -20.5t-48 -10.5t-70.5 16.5t-69.5 16.5q-41 0 -67 -28l-19 80q8 11 28.5 22t47.5 11t70 -16t71 -16q40 0 66 26zM35 280q0 126 84.5 208.5t211.5 82.5q128 0 213 -82.5t85 -208.5q0 -127 -85 -209t-213 -82q-127 0 -211.5 82t-84.5 209z M141 280q0 -86 53.5 -140.5t136.5 -54.5t137 54.5t54 140.5t-54 140.5t-137 54.5t-136.5 -54.5t-53.5 -140.5z" />
<glyph unicode="&#xf6;" horiz-adv-x="663" d="M233 631q-22 0 -38 16.5t-16 39.5t16 39t39 16t39 -16t16 -39t-16.5 -39.5t-39.5 -16.5zM431 631q-24 0 -40 16.5t-16 39.5t16 39t40 16q23 0 39 -16t16 -39t-16 -39.5t-39 -16.5zM35 280q0 126 84.5 208.5t211.5 82.5q128 0 213 -82.5t85 -208.5q0 -127 -85 -209 t-213 -82q-127 0 -211.5 82t-84.5 209zM141 280q0 -86 53.5 -140.5t136.5 -54.5t137 54.5t54 140.5t-54 140.5t-137 54.5t-136.5 -54.5t-53.5 -140.5z" />
<glyph unicode="&#xf7;" horiz-adv-x="668" d="M335 417q-31 0 -48 17t-17 43t17 42.5t48 16.5q30 0 47 -16.5t17 -42.5q0 -27 -16.5 -43.5t-47.5 -16.5zM528 240h-389v92h389v-92zM335 37q-31 0 -48 17.5t-17 43.5t17 42.5t48 16.5q30 0 47 -16.5t17 -42.5q0 -27 -17 -44t-47 -17z" />
<glyph unicode="&#xf8;" horiz-adv-x="663" d="M606 556l-57 -73q80 -82 80 -203q0 -127 -85 -209t-213 -82q-79 0 -141 32l-56 -72l-78 59l55 71q-76 81 -76 201q0 126 84.5 208.5t211.5 82.5q75 0 139 -31l58 75zM141 280q0 -67 35 -118l232 298q-34 15 -77 15q-83 0 -136.5 -54.5t-53.5 -140.5zM331 85 q83 0 137 54.5t54 140.5q0 70 -37 121l-234 -300q35 -16 80 -16z" />
<glyph unicode="&#xf9;" horiz-adv-x="619" d="M263 782l107 -168h-100l-95 139zM557 560v-309q0 -131 -65 -196.5t-183 -65.5t-182.5 65.5t-64.5 196.5v309h107v-319q0 -156 142 -156t142 156v319h104z" />
<glyph unicode="&#xfa;" horiz-adv-x="619" d="M351 614h-100l106 168l89 -29zM557 560v-309q0 -131 -65 -196.5t-183 -65.5t-182.5 65.5t-64.5 196.5v309h107v-319q0 -156 142 -156t142 156v319h104z" />
<glyph unicode="&#xfb;" horiz-adv-x="619" d="M464 669l-49 -59l-105 84l-106 -84l-49 60l155 122zM557 560v-309q0 -131 -65 -196.5t-183 -65.5t-182.5 65.5t-64.5 196.5v309h107v-319q0 -156 142 -156t142 156v319h104z" />
<glyph unicode="&#xfc;" horiz-adv-x="619" d="M214 631q-23 0 -39 16.5t-16 39.5t16 39t40 16q22 0 38 -16t16 -39t-16 -39.5t-39 -16.5zM411 631q-23 0 -39.5 16.5t-16.5 39.5t16.5 39t39.5 16t39 -16t16 -39t-16 -39.5t-39 -16.5zM557 560v-309q0 -131 -65 -196.5t-183 -65.5t-182.5 65.5t-64.5 196.5v309h107v-319 q0 -156 142 -156t142 156v319h104z" />
<glyph unicode="&#xfd;" horiz-adv-x="558" d="M327 614h-100l107 168l88 -29zM331 0h-105v218l-211 342h120l80 -129q16 -27 33.5 -56t25.5 -43l9 -15h2l9 15q9 14 26.5 43t34.5 57l78 128h110l-212 -342v-218z" />
<glyph unicode="&#xfe;" horiz-adv-x="494" d="M175 449h71q107 0 165 -43.5t58 -126.5q0 -80 -58 -122t-165 -42h-71v-115h-105v560h105v-111zM175 199h74q58 0 85.5 18.5t27.5 59.5q0 78 -113 78h-74v-156z" />
<glyph unicode="&#xff;" horiz-adv-x="558" d="M190 631q-23 0 -39 16.5t-16 39.5t16.5 39t39.5 16q22 0 38 -16t16 -39t-16 -39.5t-39 -16.5zM387 631q-23 0 -39 16.5t-16 39.5t16 39t39 16t39 -16t16 -39t-16 -39.5t-39 -16.5zM331 0h-105v218l-211 342h120l80 -129q16 -27 33.5 -56t25.5 -43l9 -15h2l9 15 q9 14 26.5 43t34.5 57l78 128h110l-212 -342v-218z" />
<glyph unicode="&#x152;" horiz-adv-x="1005" d="M955 0h-473q-26 -4 -82 -4q-157 0 -261 98t-104 256t104.5 256t261.5 98q55 0 81 -4h470v-103h-373v-181h291v-103h-291v-210h376v-103zM146 350q0 -118 70 -186.5t186 -68.5q39 0 69 10v492q-29 8 -69 8q-116 0 -186 -68t-70 -187z" />
<glyph unicode="&#x153;" horiz-adv-x="848" d="M798 0h-395q-23 -3 -70 -3q-131 0 -214.5 78t-83.5 205t83.5 205t214.5 78q50 0 72 -3h388v-98h-304v-128h229v-93h-229v-143h309v-98zM141 280q0 -86 52.5 -137.5t140.5 -51.5q27 0 55 5v368q-28 5 -55 5q-88 0 -140.5 -51.5t-52.5 -137.5z" />
<glyph unicode="&#x178;" horiz-adv-x="676" d="M250 771q-23 0 -39 16.5t-16 39.5t16.5 39t39.5 16q22 0 38 -16t16 -39t-16 -39.5t-39 -16.5zM447 771q-23 0 -39 16.5t-16 39.5t16 39t39 16t39 -16t16 -39t-16 -39.5t-39 -16.5zM393 295v-295h-111v295l-267 405l128 1l140 -218q13 -21 28 -43.5t22 -33.5l7 -11h2l7 11 l21 33t28 43l144 218h119z" />
<glyph unicode="&#x2c6;" horiz-adv-x="551" d="M430 809l-50 -59l-105 84l-105 -84l-50 60l155 122z" />
<glyph unicode="&#x2dc;" horiz-adv-x="551" d="M406 885l19 -81q-7 -10 -28 -20.5t-48 -10.5t-70.5 16.5t-69.5 16.5q-40 0 -66 -28l-20 80q8 11 29 22t48 11t69.5 -16t70.5 -16q40 0 66 26z" />
<glyph unicode="&#x2000;" horiz-adv-x="471" />
<glyph unicode="&#x2001;" horiz-adv-x="943" />
<glyph unicode="&#x2002;" horiz-adv-x="471" />
<glyph unicode="&#x2003;" horiz-adv-x="943" />
<glyph unicode="&#x2004;" horiz-adv-x="314" />
<glyph unicode="&#x2005;" horiz-adv-x="235" />
<glyph unicode="&#x2006;" horiz-adv-x="157" />
<glyph unicode="&#x2007;" horiz-adv-x="157" />
<glyph unicode="&#x2008;" horiz-adv-x="117" />
<glyph unicode="&#x2009;" horiz-adv-x="188" />
<glyph unicode="&#x200a;" horiz-adv-x="52" />
<glyph unicode="&#x2010;" horiz-adv-x="578" d="M483 240h-389v92h389v-92z" />
<glyph unicode="&#x2011;" horiz-adv-x="578" d="M483 240h-389v92h389v-92z" />
<glyph unicode="&#x2012;" horiz-adv-x="578" d="M483 240h-389v92h389v-92z" />
<glyph unicode="&#x2013;" horiz-adv-x="668" d="M573 240h-479v92h479v-92z" />
<glyph unicode="&#x2014;" horiz-adv-x="987" d="M892 240h-798v92h798v-92z" />
<glyph unicode="&#x2018;" d="M135 603q22 2 35.5 -11t13.5 -36q0 -24 -17 -40t-45 -16q-31 0 -50.5 21t-19.5 56q0 41 27 79.5t73 53.5l42 -48q-21 -7 -37.5 -24t-21.5 -35z" />
<glyph unicode="&#x2019;" d="M109 610q-22 -2 -35.5 11t-13.5 36q0 24 17 39.5t44 15.5q32 0 51.5 -20.5t19.5 -56.5q0 -41 -27 -79.5t-73 -53.5l-42 48q20 7 37 24t22 36z" />
<glyph unicode="&#x201a;" d="M109 3q-22 -2 -35.5 11t-13.5 36q0 24 17 40t44 16q32 0 51.5 -20.5t19.5 -56.5q0 -41 -27 -79.5t-73 -53.5l-42 48q20 7 37 24t22 35z" />
<glyph unicode="&#x201c;" horiz-adv-x="443" d="M133 603q22 2 35.5 -11t13.5 -36q0 -24 -17 -40t-45 -16q-31 0 -50.5 21t-19.5 56q0 41 27 79.5t73 53.5l42 -48q-21 -7 -37.5 -24t-21.5 -35zM332 603q22 2 35.5 -11t13.5 -36q0 -24 -17 -40t-45 -16q-31 0 -50.5 21t-19.5 56q0 41 27 79.5t73 53.5l42 -48 q-21 -7 -37.5 -24t-21.5 -35z" />
<glyph unicode="&#x201d;" horiz-adv-x="443" d="M308 610q-22 -2 -35.5 11t-13.5 36q0 24 17 39.5t44 15.5q32 0 51.5 -20.5t19.5 -56.5q0 -41 -27 -79.5t-73 -53.5l-42 48q20 7 37 24t22 36zM109 610q-22 -2 -35.5 11t-13.5 36q0 24 17 39.5t44 15.5q32 0 51.5 -20.5t19.5 -56.5q0 -41 -27 -79.5t-73 -53.5l-42 48 q20 7 37 24t22 36z" />
<glyph unicode="&#x201e;" horiz-adv-x="434" d="M299 3q-22 -2 -35.5 11t-13.5 36q0 24 17 40t44 16q32 0 51.5 -20.5t19.5 -56.5q0 -41 -27 -79.5t-73 -53.5l-42 48q21 7 37.5 24t21.5 35zM109 3q-22 -2 -35.5 11t-13.5 36q0 24 17 40t44 16q32 0 51.5 -20.5t19.5 -56.5q0 -41 -27 -79.5t-73 -53.5l-42 48q20 7 37 24 t22 35z" />
<glyph unicode="&#x2022;" horiz-adv-x="325" d="M163 196q-41 0 -67 24.5t-26 64.5q0 39 26 63.5t67 24.5q40 0 66 -24.5t26 -63.5t-26 -64t-66 -25z" />
<glyph unicode="&#x2026;" horiz-adv-x="721" d="M110 -11q-25 0 -39 14.5t-14 35.5t14 35t39 14t39 -14t14 -35q0 -22 -14 -36t-39 -14zM355 -11q-25 0 -39 14.5t-14 35.5t14 35t39 14t39 -14t14 -35q0 -22 -14 -36t-39 -14zM611 -11q-26 0 -40 14.5t-14 35.5t14.5 35t39.5 14t39 -14t14 -35q0 -22 -14 -36t-39 -14z" />
<glyph unicode="&#x202f;" horiz-adv-x="188" />
<glyph unicode="&#x2039;" horiz-adv-x="417" d="M296 514l60 -61l-177 -172v-3l178 -171l-62 -62l-235 235z" />
<glyph unicode="&#x203a;" horiz-adv-x="417" d="M122 45l-62 62l178 171v3l-177 172l60 61l236 -234z" />
<glyph unicode="&#x205f;" horiz-adv-x="235" />
<glyph unicode="&#x20ac;" horiz-adv-x="597" d="M456 164l103 -27q-22 -64 -79 -106t-151 -42q-200 0 -245 188h-49v79h39l-1 31v16h-38v79h47q39 189 242 189q90 0 152.5 -39.5t80.5 -120.5l-102 -28q-26 94 -130 94q-102 0 -128 -95h145v-79h-156v-16q0 -21 1 -31h155v-79h-142q30 -92 133 -92q91 0 123 79z" />
<glyph unicode="&#x2122;" horiz-adv-x="795" d="M726 375h-69v119l1 114h-1l-5 -10l-14 -28t-17 -32l-47 -90h-38l-47 90q-37 70 -39 72h-1l1 -116v-119h-67v325h82l62 -118l29 -54h1q1 1 27 53l60 119h82v-325zM321 700v-65h-108v-260h-70v260h-108v65h286z" />
</font>
</defs>
</svg>
